<?xml version="1.0" standalone="no"?>
<!DOCTYPE svg PUBLIC "-//W3C//DTD SVG 1.1//EN" "http://www.w3.org/Graphics/SVG/1.1/DTD/svg11.dtd" >
<svg xmlns="http://www.w3.org/2000/svg" xmlns:xlink="http://www.w3.org/1999/xlink" version="1.1">
<metadata></metadata>
<defs>
<font id="tfarrowboldregular" horiz-adv-x="889" >
<font-face units-per-em="2048" ascent="1638" descent="-410" />
<missing-glyph horiz-adv-x="334" />
<glyph horiz-adv-x="0" />
<glyph horiz-adv-x="682" />
<glyph unicode=" "  horiz-adv-x="334" />
<glyph unicode="&#x09;" horiz-adv-x="334" />
<glyph unicode="&#xa0;" horiz-adv-x="334" />
<glyph unicode="!" horiz-adv-x="497" d="M98 1170q0 90 39 139t107 49q64 0 101.5 -49.5t37.5 -138.5q0 -63 -56.5 -425.5t-82.5 -425.5q-28 62 -87 424.5t-59 426.5zM116 106.5q0 51.5 36 87.5t88 36t87 -35.5t35 -87.5t-35 -88t-87 -36t-88 36t-36 87.5z" />
<glyph unicode="&#x22;" horiz-adv-x="636" d="M32 1235q0 52 34.5 87.5t87.5 35.5q20 0 38.5 -6t33 -17.5t25.5 -26.5t17 -34t6 -39q0 -41 -53.5 -209.5t-66.5 -168.5q-12 0 -67 168.5t-55 209.5zM323 1235q0 52 35 87.5t86 35.5q50 0 85 -36t35 -87q0 -41 -53.5 -209.5t-66.5 -168.5q-14 0 -67.5 168t-53.5 210z" />
<glyph unicode="#" horiz-adv-x="1251" d="M-8 338l16 81h226l89 497h-227l18 80h224l59 351h207l-60 -351h278l61 351h207l-62 -351h223l-16 -80h-222l-89 -497h240l-18 -81h-236l-60 -348h-207l61 348h-280l-58 -348h-207l59 348h-226zM441 419h277l88 497h-277z" />
<glyph unicode="$" horiz-adv-x="931" d="M24 989q0 67 20.5 125t55 99.5t81 73t96 49.5t102.5 26v130h95q0 -19 -0.5 -42.5t-1 -46.5t-0.5 -41q18 0 36.5 -1.5t34.5 -3.5t34.5 -6t31.5 -7t31 -8.5t27.5 -8.5t26 -9.5t21.5 -8.5t20 -8.5t16 -6.5l12 -296q-11 39 -35 80t-59.5 80.5t-87 67t-109.5 33.5 q0 -68 -2 -201.5t-2 -226.5l45 -21q53 -24 80 -37t72 -38.5t68 -45.5t53.5 -52.5t45.5 -66.5t26 -80.5t11 -99.5q0 -67 -21 -128t-58 -108.5t-86.5 -84t-108.5 -59t-123 -29.5q0 -41 1 -88t1 -50h-95v133q-57 1 -109 11t-96.5 26.5t-70.5 29t-60 30.5l-6 330q8 -27 17.5 -53 t23 -54t30.5 -54t37 -50.5t45.5 -44.5t53.5 -35t63 -24t72 -9q0 92 1 252.5t1 242.5q-1 0 -2 1q-46 22 -70.5 34.5t-68.5 38t-68.5 46.5t-56.5 54t-49 66.5t-29.5 78.5t-12.5 96zM224 1071q0 -48 15.5 -82t48.5 -61.5t93 -58.5q0 64 -1 193t-1 195q-43 -5 -74.5 -24 t-48.5 -46.5t-24.5 -56t-7.5 -59.5zM468 537q0 -74 2 -220.5t2 -224.5q36 8 65.5 27t48 42t31 51t17.5 53.5t5 49.5q0 35 -8 64t-21 50t-36.5 40.5t-47 34t-58.5 33.5z" />
<glyph unicode="%" horiz-adv-x="1224" d="M24 1022q0 96 33.5 171.5t101 120t158.5 44.5q83 0 148 -46t99 -121.5t34 -164.5q0 -83 -25.5 -148.5t-68 -104.5t-94 -59t-108.5 -20q-79 0 -141.5 39t-99.5 114.5t-37 174.5zM135 0q102 153 397.5 663t379.5 674h152q-108 -161 -403 -670t-374 -667h-152zM201 1032 q-2 -140 27 -211.5t74 -71.5q52 0 80.5 71.5t30.5 199.5q1 90 -11 155t-35 99t-56 34q-31 0 -55 -31.5t-39 -94.5t-16 -150zM598 311q0 70 20 131t56.5 106.5t93 72t125.5 26.5q83 0 148 -47t98 -123t33 -166q0 -82 -24.5 -146.5t-66 -104t-92.5 -59.5t-108 -20 q-59 0 -110.5 22.5t-90 64t-60.5 104.5t-22 139zM777 319q-2 -140 28 -210t76 -72q52 -1 80 69.5t30 197.5q1 136 -27.5 214t-74.5 78q-50 0 -81 -74t-31 -203z" />
<glyph unicode="&#x26;" horiz-adv-x="1175" d="M22 332q0 242 282 390q-3 5 -11 14q-37 45 -57.5 73t-50 74.5t-43.5 90.5t-14 86q0 131 96.5 214.5t259.5 83.5q89 0 158 -22.5t110 -61t62 -85t21 -97.5q0 -34 -9 -65.5t-21.5 -56t-35.5 -50.5t-41 -43t-48.5 -39.5t-47.5 -33.5t-48 -30q-5 -3 -8 -5l274 -352 q14 26 27.5 65.5t21 90t3.5 95t-29.5 80t-71.5 46.5h229q14 -110 -12 -220t-94 -246q26 -31 76 -96.5t81.5 -104.5t72 -77.5t71.5 -49.5h-342q-8 12 -21.5 30t-28 36t-27.5 34.5t-21 26.5l-8 10q-60 -56 -127 -92.5t-130 -51t-126 -12t-117.5 21t-102 50.5t-81 74.5 t-52.5 95t-19 109.5zM248 401q0 -58 21.5 -110.5t57 -89t83 -56.5t97.5 -20t103 26.5t98 78.5l-331 409q-21 -14 -41 -34t-41.5 -49.5t-34 -69.5t-12.5 -85zM346 1122q0 -57 37 -115t124 -155q126 90 126 221q0 21 -5 45.5t-17 51t-28.5 47.5t-43.5 35t-59 14 q-18 0 -36.5 -5.5t-36 -17t-31.5 -28t-22 -40.5t-8 -53z" />
<glyph unicode="'" horiz-adv-x="317" d="M32 1235q0 52 34.5 87.5t87.5 35.5q20 0 38.5 -6t33 -17.5t25.5 -26.5t17 -34t6 -39q0 -41 -53.5 -209.5t-66.5 -168.5q-12 0 -67 168.5t-55 209.5z" />
<glyph unicode="(" horiz-adv-x="621" d="M4 664q0 129 24.5 244t63.5 197.5t91.5 153.5t103 116.5t103.5 81t88.5 52t61.5 24.5q-86 -84 -151 -228t-97.5 -309.5t-32.5 -331.5t33 -343t98.5 -334.5t149.5 -239.5l-8 4q-29 14 -48.5 24.5t-62.5 37.5t-75.5 54t-78.5 72.5t-80 93.5t-70.5 116.5t-59.5 143 t-38 170.5t-15 201z" />
<glyph unicode=")" horiz-adv-x="621" d="M81 -253q85 82 150.5 239.5t98 334.5t32.5 343t-32.5 331.5t-97.5 309.5t-151 228q20 -6 45 -17t63 -33t76 -49.5t81 -69t81 -90t73.5 -113.5t61 -137.5t40.5 -165.5t15 -194q0 -105 -15 -201t-38 -170.5t-59.5 -143t-70.5 -116.5t-79.5 -93.5t-78.5 -72.5t-76 -54 t-62.5 -37.5t-47.5 -24.5q-7 -3 -9 -4z" />
<glyph unicode="*" horiz-adv-x="583" d="M10 1170q9 24 31 33t43 0q11 -3 33.5 -15t49.5 -29.5t49 -34.5q4 11 14 18.5t20 7.5q-9 26 -16.5 56.5t-12.5 56t-5 37.5q0 22 16.5 40t41.5 18t41.5 -18t16.5 -40q0 -18 -11.5 -64t-25.5 -84q17 -2 33 -23q14 10 30 20.5t31 19t29.5 16t25.5 12t18 6.5q21 9 42.5 -2.5 t28.5 -35.5q8 -24 -4 -44.5t-34 -25.5q-26 -10 -149 -10q1 -11 -3 -24.5t-11 -20.5q34 -23 69.5 -55t42.5 -45q17 -18 14.5 -43.5t-23.5 -35.5q-22 -16 -45 -11.5t-38 23.5q-9 11 -27 55t-30 85q-8 -4 -42 -4q-12 -36 -31.5 -78.5t-30.5 -57.5q-12 -18 -35.5 -22t-45.5 10 q-19 16 -22 39t10 40q16 31 114 100q-9 12 -9 37q-42 0 -89 6t-67 12q-22 8 -33 29.5t-4 45.5z" />
<glyph unicode="+" horiz-adv-x="1017" d="M67 574v156h338v399h154v-399h340v-156h-340v-399h-154v399h-338z" />
<glyph unicode="," horiz-adv-x="317" d="M49 102q0 59 37 92.5t87 33.5q65 0 104.5 -52.5t39.5 -138.5q0 -74 -36 -161t-87.5 -147.5t-95.5 -66.5q-12 -4 -17 4q-4 8 12 12q2 1 5 1q12 2 32 28.5t41 67.5t36 99.5t15 113.5q-42 -7 -49 -7q-51 0 -87.5 36.5t-36.5 84.5z" />
<glyph unicode="-" horiz-adv-x="473" d="M22 441v159h393v-159h-393z" />
<glyph unicode="." horiz-adv-x="317" d="M59 105q0 52 35 87.5t86.5 35.5t87.5 -36t36 -87.5t-36 -87.5t-87.5 -36t-86.5 36t-35 88z" />
<glyph unicode="/" horiz-adv-x="819" d="M-28 -230q76 159 324.5 772t313.5 795h153q-81 -173 -331.5 -788.5t-305.5 -778.5h-154z" />
<glyph unicode="0" horiz-adv-x="1163" d="M19 666q0 143 40.5 270t112.5 220.5t177.5 148t228.5 53.5q115 0 214.5 -56t167.5 -150t106.5 -220.5t38.5 -265.5q0 -138 -32 -253.5t-85.5 -194t-124.5 -133t-148 -79.5t-158 -25q-87 0 -166.5 29.5t-147 87.5t-117.5 139t-78.5 191.5t-28.5 237.5zM287 681 q-1 -153 18.5 -267.5t56 -183.5t85 -103t108.5 -35q129 -1 202 147t76 418q5 280 -68.5 439t-194.5 161q-125 1 -202.5 -149.5t-80.5 -426.5z" />
<glyph unicode="1" horiz-adv-x="506" d="M-4 1152l366 206v-1270q0 -56 58 -88h-363q63 31 63 88v958q0 130 -124 106z" />
<glyph unicode="2" horiz-adv-x="864" d="M-60 0q16 25 113 135.5t215.5 256.5t193.5 261q50 80 76 148t26 139q0 116 -68.5 189.5t-174.5 73.5q-76 0 -147 -37t-150 -126q8 40 28 82.5t56 85t82 76t111 54t138 20.5q63 0 119 -16.5t97 -45.5t73.5 -66.5t52.5 -79.5t30.5 -84t10.5 -81q0 -161 -156 -328l-426 -458 h478q22 0 39 6.5t26.5 14.5t18 23.5t11.5 24.5t9 29l6 -297h-888z" />
<glyph unicode="3" horiz-adv-x="829" d="M-43 154q74 -38 125 -54t115 -16q76 0 138 25.5t102.5 68t62 97t21.5 115.5q0 44 -11.5 83t-41.5 77.5t-76 68t-118.5 53t-166.5 36.5q16 7 56 25.5t60.5 28t49.5 25t48.5 28.5t32.5 27q79 79 79 178q0 42 -14 77.5t-36 59t-49 40.5t-52.5 24.5t-47.5 7.5 q-58 0 -108 -23.5t-104 -68.5q10 31 38.5 68t71.5 72t106 58t130 23q56 0 111 -21t98 -57.5t70 -91.5t27 -117q0 -182 -265 -294q75 -7 138 -33t105 -64t72 -85.5t43 -97t13 -100.5q0 -58 -17.5 -116t-55 -112t-90 -96t-129 -67t-165.5 -25q-74 0 -138 16.5t-108 44t-73 55 t-47 57.5z" />
<glyph unicode="4" horiz-adv-x="976" d="M-92 415l872 977v-833h158v-144h-158v-327q0 -55 57 -88h-357q60 35 60 88v327h-632zM175 559h365v413z" />
<glyph unicode="5" horiz-adv-x="842" d="M-43 191q46 -36 76 -55t72 -33.5t88 -14.5q98 0 172 45.5t111.5 119t37.5 162.5q0 67 -24.5 125.5t-66.5 100t-100.5 65.5t-125.5 24q-54 0 -82.5 -6t-65.5 -26l107 637h463q51 0 72.5 8.5t45.5 31.5l-26 -253h-473l-53 -287q22 10 48 16t48.5 8t41.5 2.5t30 0.5l11 -1 q54 0 111.5 -16t114 -50t100.5 -82t71 -117.5t27 -151.5q0 -129 -63 -235.5t-174 -167t-247 -60.5q-264 0 -347 210z" />
<glyph unicode="6" horiz-adv-x="1053" d="M19 610q0 81 18 168t51.5 170.5t85 158.5t113 131.5t140 90t162.5 33.5q91 2 168 -32t96 -73q-2 1 -8 3q-27 10 -41.5 14.5t-41.5 7.5t-66 3q-70 0 -132.5 -29.5t-109.5 -80t-83.5 -117.5t-58 -142t-29.5 -153q50 57 121.5 88t184.5 32q57 1 116 -17.5t112.5 -56 t95.5 -88.5t67 -121t25 -148q0 -95 -29 -174.5t-77.5 -133t-111.5 -91t-129 -54t-133 -16.5q-105 -1 -190.5 32.5t-143 91.5t-96.5 138.5t-57 171t-19 193.5zM283 454q1 -69 14 -127.5t35.5 -100.5t52.5 -71.5t64.5 -44t71.5 -14.5q48 0 87 16t62.5 39.5t41.5 58.5t26 63.5 t12.5 64t5 52t0.5 34.5q0 30 -5 63.5t-15 73t-28.5 74.5t-43 64.5t-61.5 46.5t-82 17q-110 0 -174 -86t-64 -223z" />
<glyph unicode="7" horiz-adv-x="797" d="M-19 1058v279h871q-9 -13 -130.5 -341t-240 -662t-115.5 -353h-222q67 117 181.5 402.5t195.5 513.5l81 227h-527q-60 0 -94 -66z" />
<glyph unicode="8" horiz-adv-x="984" d="M22 362q0 227 254 328q-40 27 -71 55.5t-61.5 68.5t-47.5 92t-17 111q0 66 26 126.5t76 109t131 77t181 28.5q50 0 101 -11.5t98.5 -36.5t84.5 -59.5t59.5 -84t22.5 -106.5q0 -185 -216 -291q132 -55 208.5 -153.5t76.5 -225.5q0 -200 -152 -314q-128 -95 -307 -96 q-178 -1 -303 91q-144 107 -144 291zM227 362q0 -150 103 -225q82 -61 185 -45q102 17 151 99q32 53 32 124q0 47 -16 86.5t-38.5 66t-59.5 52.5t-67 41l-73 36.5t-67 35.5q-150 -105 -150 -271zM291 1088q0 -40 16 -76.5t40.5 -63.5t58.5 -50.5t64.5 -38.5t64.5 -28 q60 35 96.5 94t36.5 139q0 35 -11.5 69.5t-33.5 64t-59 47t-84 17.5q-81 0 -135 -48t-54 -126z" />
<glyph unicode="9" horiz-adv-x="1051" d="M12 893q0 96 29 175.5t77.5 132t111.5 89t128.5 52.5t131.5 16q104 0 190 -35.5t144 -95.5t97.5 -141.5t57 -170t17.5 -183.5q0 -84 -18.5 -172t-52.5 -172t-85 -158t-113.5 -129.5t-142 -88t-165.5 -31.5q-98 0 -168.5 31.5t-93.5 75.5q9 -3 23.5 -8.5t21 -8.5t20 -6.5 t24.5 -5.5t28.5 -3t38.5 -1q71 0 135 30t111.5 80.5t84.5 118t59 142t30 152.5q-33 -37 -73 -61.5t-101 -39.5t-139 -15q-56 0 -113.5 18.5t-110 55.5t-94 88t-66 121t-24.5 148zM261 916q0 -36 6 -77t22.5 -88t41.5 -84t67.5 -61.5t94.5 -23.5q111 1 175.5 85t64.5 220 q0 84 -19.5 153t-53 113t-75.5 67.5t-88 23.5q-34 0 -63.5 -7.5t-51.5 -21.5t-40 -31t-30 -40t-21.5 -43.5t-14.5 -46t-8.5 -43.5t-4.5 -40.5t-1.5 -32t-0.5 -22.5z" />
<glyph unicode=":" horiz-adv-x="317" d="M57 100q0 52 35 88t87 36q34 0 62.5 -16.5t44.5 -45t16 -62.5q0 -52 -36 -88t-87 -36q-34 0 -62 16.5t-44 45t-16 62.5zM57 803q0 52 35 87.5t86.5 35.5t87.5 -36t36 -87.5t-36 -87.5t-87 -36q-34 0 -62 16.5t-44 44.5t-16 63z" />
<glyph unicode=";" horiz-adv-x="317" d="M49 102q0 59 37 92.5t87 33.5q65 0 104.5 -52.5t39.5 -138.5q0 -74 -36 -161t-87.5 -147.5t-95.5 -66.5q-12 -4 -17 4q-4 8 12 12q2 1 5 1q12 2 32 28.5t41 67.5t36 99.5t15 113.5q-42 -7 -49 -7q-51 0 -87.5 36.5t-36.5 84.5zM53 803q0 52 35 87.5t87 35.5 q34 0 62.5 -16t45 -44.5t16.5 -62.5q0 -52 -36 -88t-88 -36t-87 36t-35 88z" />
<glyph unicode="&#x3c;" horiz-adv-x="1009" d="M0 598v117q36 0 102.5 17.5t165 60.5t203.5 103t227 156t226 210q-2 -5 -17.5 -50.5t-28 -78.5t-41 -90t-58 -100.5t-77.5 -95.5t-101 -87.5t-127 -64t-157 -38.5q67 -11 128 -33t108.5 -49t91 -63.5t75 -71.5t60.5 -78t47.5 -77.5t36.5 -75.5t27 -66t19.5 -55.5 t13.5 -38.5q-104 111 -226 206.5t-227.5 156.5t-204 105t-165 62.5t-101.5 18.5z" />
<glyph unicode="=" horiz-adv-x="1017" d="M67 397v155h837v-155h-837zM67 741v156h837v-156h-837z" />
<glyph unicode="&#x3e;" horiz-adv-x="1009" d="M77 49q3 8 13.5 38.5t19.5 55.5t27 66t36.5 75.5t48 77.5t60.5 78t74.5 71.5t91 63.5t108.5 49t128 33q-86 10 -162.5 40.5t-130.5 68t-102.5 93t-77 99t-57 104.5t-39.5 90.5t-26 74.5q-9 27 -12 35q104 -114 226 -210t226.5 -156t203 -103t165 -60.5t102.5 -17.5v-117 q-34 0 -100.5 -18.5t-165 -62.5t-204 -105t-227.5 -156.5t-226 -206.5z" />
<glyph unicode="?" horiz-adv-x="769" d="M65 1257q98 105 312 105q40 0 81.5 -7.5t87.5 -27.5t81 -50t58 -80t23 -112q0 -171 -291 -497q-37 -42 -61 -75t-39 -67t-21 -52.5t-19 -61.5q-5 11 -12.5 29t-20 69.5t-12.5 96.5q0 51 11.5 88t41.5 83q15 22 30.5 46.5t45.5 75t52 94t39 92t17 79.5q0 83 -44.5 130 t-109.5 47q-188 0 -246 -287zM161 106.5q0 51.5 36 87.5t88 36q51 0 86.5 -36t35.5 -87q0 -34 -16.5 -62.5t-44.5 -45t-61 -16.5q-52 0 -88 36t-36 87.5z" />
<glyph unicode="@" horiz-adv-x="1415" d="M-84 420q0 116 25.5 223t73.5 198t119.5 166t159.5 127.5t196.5 81t229.5 28.5q107 0 200.5 -24t163 -65.5t127 -98t96 -119.5t64.5 -133t37.5 -136t11.5 -129q0 -121 -31 -229t-82.5 -185t-121.5 -121.5t-145 -44.5q-34 0 -62 6.5t-47.5 15.5t-35 24.5t-24.5 27.5 t-17 30.5t-10.5 27.5t-6.5 24q-1 5 -2 7q-2 -2 -7 -6t-20.5 -15t-32 -20.5t-40 -21.5t-46 -21t-49 -15t-51.5 -6q-159 0 -240 82t-81 235q0 72 22 148t67.5 148.5t108 129.5t150 92t187.5 35q83 0 182 -48l183 34l-124 -582q-20 -99 -20 -130q0 -22 12 -40.5t33 -29 t46 -10.5q39 0 81 37.5t77 99t57.5 148t22.5 176.5q0 120 -43 224t-119 179t-186 118.5t-240 43.5q-107 0 -207 -30.5t-184 -89.5t-146.5 -140t-98 -189.5t-35.5 -231.5q0 -170 46 -304.5t130 -223.5t199.5 -138t258.5 -57v-24q-140 0 -259.5 25.5t-222.5 82.5t-175.5 142 t-113.5 210t-41 281zM492 354q0 -100 42.5 -160.5t133.5 -60.5q23 0 48 6.5t50 19t44 28.5l113 533q-1 2 -1.5 4.5t-4.5 10t-8.5 14.5t-14 15.5t-20.5 15t-28.5 10.5t-37.5 4q-79 0 -153 -63t-118.5 -165t-44.5 -212z" />
<glyph unicode="A" horiz-adv-x="1106" d="M-112 0q40 28 59 47.5t34 48.5q16 33 154.5 354t269.5 625l130 304q523 -1208 558 -1283q16 -34 34.5 -53t63.5 -43h-420q37 20 47.5 43t-0.5 53q-3 9 -18 45t-44.5 107.5t-49.5 121.5h-482q-103 -235 -110 -272q-13 -35 -3.5 -57.5t48.5 -40.5h-271zM263 472h397 l-200 481q-134 -333 -197 -481z" />
<glyph unicode="B" horiz-adv-x="1122" d="M63 0q55 30 55 88v1160q0 63 -55 89h434q32 0 67.5 -3t80.5 -12.5t86.5 -24t82 -39t70 -55.5t47.5 -77t18 -100q0 -50 -14.5 -94t-38.5 -74.5t-53 -56t-58 -41t-52.5 -26t-38.5 -15.5l-15 -4q8 0 22 -1.5t55 -10.5t78 -22.5t82.5 -40t78 -60.5t54.5 -88t22 -119 q0 -35 -7 -70t-24 -72.5t-43.5 -70.5t-68.5 -62.5t-94.5 -51t-126 -34t-159.5 -12.5h-485zM368 102q24 -6 65 -6q43 0 84 5.5t84.5 18t79.5 35t65.5 54t45.5 78t16 103.5q0 50 -12 91t-34.5 69.5t-52 49t-66.5 31.5t-74.5 16.5t-80.5 5.5l-120 -2v-549zM368 756q33 -3 65 -3 q37 0 73.5 6.5t76 24.5t69 45.5t49 73.5t19.5 104q0 68 -33 122t-91 83.5t-130 29.5l-98 -4v-482z" />
<glyph unicode="C" horiz-adv-x="1326" d="M19 664q0 105 30 204.5t93 188.5t151 156t212 106t270 39q241 0 461 -101q2 -20 4 -52.5t6.5 -100.5t7 -111.5t1.5 -41.5q-25 57 -58 103t-66.5 77t-72 54t-71.5 35.5t-68.5 20t-60 10t-48.5 2.5q-123 0 -223.5 -43.5t-166.5 -119.5t-101.5 -178.5t-35.5 -221.5 q0 -59 8.5 -118t28 -119t48.5 -113t73 -99.5t98 -80t127 -53t158 -19.5q34 0 69.5 5t88.5 24t100.5 49.5t97.5 88.5l88 135l1 -5q1 -15 -3 -63q-4 -70 -10 -143l-5 -72q-223 -126 -500 -126q-116 0 -224.5 30.5t-200.5 90t-160.5 141t-107.5 190.5t-39 231z" />
<glyph unicode="D" horiz-adv-x="1424" d="M67 0q51 30 51 88v1160q0 63 -51 89h522q134 0 247 -26t191 -68.5t139.5 -100.5t98 -117.5t60.5 -124t32.5 -116t8.5 -96.5q0 -104 -31 -202.5t-96 -187t-157.5 -154.5t-223.5 -105t-286 -39h-505zM368 102h157q82 0 152 13t124.5 38t99 58.5t76 76t54.5 89t36.5 99.5 t19.5 105t6 107q0 53 -8.5 105.5t-28 107t-49 103.5t-74 92t-99 74.5t-128 49.5t-158.5 18q-151 0 -180 -3v-1133z" />
<glyph unicode="E" horiz-adv-x="945" d="M59 0q29 17 44 36.5t15 51.5v1160q0 60 -59 89h791l5 -173q-18 25 -39.5 40t-48.5 22t-65 9q-17 1 -57.5 1.5t-86.5 1t-89.5 0.5h-72.5h-28v-452h296q20 0 42 18.5t29 37.5v-209q-7 21 -28.5 39t-42.5 18h-296v-578q32 -4 110 -8q52 -3 99 -3q24 0 46 1q10 0 28 1 q33 1 48.5 1.5t41.5 2t39 4t33.5 7t31.5 11t27 15.5t27 20.5t23 27t24 35.5l-42 -227h-845z" />
<glyph unicode="F" horiz-adv-x="893" d="M59 0q30 16 44.5 35.5t14.5 52.5v1160q0 64 -59 89h836l9 -191q-20 39 -56.5 61t-100.5 24l-379 7v-452h306q22 0 43.5 18t29.5 38v-209q-5 14 -16 27t-26.5 21.5t-30.5 8.5h-306v-602q0 -33 13.5 -53t42.5 -35h-365z" />
<glyph unicode="G" horiz-adv-x="1437" d="M19 664q0 105 30.5 204.5t93.5 188.5t151.5 156t214 106t271.5 39q227 0 462 -101l15 -313q-29 76 -76.5 134.5t-96 90.5t-104 52t-94.5 26t-72 6q-122 0 -222.5 -43.5t-166.5 -119.5t-102 -178.5t-36 -221.5q0 -60 8.5 -118.5t28 -118.5t48 -113t72.5 -99.5t98.5 -80 t127.5 -53t158 -19.5q150 0 249 66v341q0 63 -51 91h353q-52 -30 -52 -91v-291q0 -18 6 -36.5t13 -29.5t12 -14q-116 -65 -293.5 -104t-308.5 -39q-117 0 -226.5 30.5t-202 90t-161.5 141t-108 190.5t-39 231z" />
<glyph unicode="H" horiz-adv-x="1389" d="M67 0q51 28 51 88v1160q0 65 -51 89h355q-50 -23 -50 -89v-462h611v462q0 65 -51 89h355q-54 -25 -54 -89v-1160q0 -60 54 -88h-355q51 28 51 88v602h-611v-602q0 -62 50 -88h-355z" />
<glyph unicode="I" horiz-adv-x="528" d="M67 0q51 28 51 88v1160q0 65 -51 89h355q-50 -23 -50 -89v-1160q0 -62 50 -88h-355z" />
<glyph unicode="J" horiz-adv-x="508" d="M-232 -424q7 4 23 13q29 16 44.5 25t46 30t49 39t46 49t44.5 62t36.5 76.5t30.5 95.5t18.5 114.5t7.5 137.5v1030q0 62 -55 89h356q-51 -26 -51 -89v-995q0 -38 -6.5 -84t-24.5 -107.5t-45.5 -120t-74.5 -119t-107 -109t-147.5 -85.5t-190.5 -52z" />
<glyph unicode="K" horiz-adv-x="1173" d="M67 0q51 28 51 88v1160q0 65 -51 90h352q-51 -26 -51 -90v-509q1 2 139 133.5t265.5 255.5t135.5 138q5 13 5 26q0 26 -24 46h330q-43 -12 -86.5 -34t-66.5 -45l-486 -473l613 -717q10 -12 26.5 -24.5t37.5 -24t43 -20.5h-452q21 10 28 28.5t-1 31.5q-5 19 -241 290.5 t-266 302.5v-565q0 -58 51 -88h-352z" />
<glyph unicode="L" horiz-adv-x="919" d="M63 0q55 28 55 88v1160q0 64 -55 89h356q-51 -24 -51 -89v-1136q9 0 50 -4q40 -3 84 -5q29 -1 57 -1h27q48 1 75 2t62 3.5t53.5 6t42 10t37 15t29 21t27 29t22.5 38.5l-43 -227h-828z" />
<glyph unicode="M" horiz-adv-x="1602" d="M47 1337h347l392 -902l379 902h334q-52 -25 -52 -89v-1160q0 -60 52 -88h-353q51 28 51 88v989l4 45l-17 -45l-473 -1105l-475 1074l-14 53v-53v-958q0 -59 55 -88h-218q51 30 51 88v1160q0 27 -19 52t-44 37z" />
<glyph unicode="N" horiz-adv-x="1308" d="M-13 1337h337l726 -865v776q0 64 -52 89h219q-52 -26 -52 -89v-1303q-943 1113 -943 1128v-985q0 -59 55 -88h-218q51 30 51 88v1051q0 59 -4 75t-31 48q-35 44 -88 75z" />
<glyph unicode="O" horiz-adv-x="1538" d="M19 681q2 102 34.5 201t96.5 186t152 152.5t208 102.5q114 35 245 35h14q102 -1 203.5 -30t194 -87.5t163 -139.5t111.5 -194q39 -108 39 -231v-12q-2 -133 -45.5 -247t-116 -193.5t-168.5 -135.5t-200 -82q-101 -25 -205 -25h-8q-147 2 -280 55.5t-231 144.5t-154 221 q-54 124 -53 264v15zM293 702v-9q-1 -117 25 -215q26 -102 71 -172t104.5 -119t125.5 -72t136 -23q96 0 178 38t141.5 108.5t93.5 177t35 237.5v8q0 133 -33 245q-34 114 -94.5 191t-143.5 118.5t-181 41.5q-97 0 -180.5 -38.5t-145 -108.5t-96.5 -175.5t-36 -232.5z" />
<glyph unicode="P" horiz-adv-x="1032" d="M63 0q55 30 55 88v1160q0 63 -55 89h446q82 0 151.5 -12t119 -32t88.5 -49t63.5 -61t40.5 -69t22 -71.5t6 -70.5q0 -39 -7.5 -75.5t-22 -66t-31.5 -56t-38 -48t-40.5 -38.5t-40 -30t-34.5 -21t-27 -14q-38 -17 -96 -29q-52 -11 -124 -12h-17q-84 2 -154 28v-522 q0 -58 51 -88h-356zM368 690q16 -9 76 -9q37 0 72.5 5.5t79 24t75.5 48.5t54 85t22 128q0 45 -10 85t-32.5 74.5t-54.5 59.5t-78.5 39t-103.5 14l-100 -2v-552z" />
<glyph unicode="Q" horiz-adv-x="1538" d="M19 679q1 103 33 202t96 186t151.5 153t208.5 103q115 35 245 35h14q84 -1 169.5 -21.5t166 -59t149.5 -98.5t121 -134.5t81 -172.5q26 -91 26 -192v-14q-1 -113 -34 -213.5t-87.5 -176t-128 -134.5t-155 -94.5t-169.5 -51.5q84 -61 184 -113.5t214.5 -96t196 -70.5 t200.5 -64q-151 -44 -293 -44q-138 0 -268 42q-263 84 -459 333q-140 13 -262 70t-211.5 147t-139.5 214q-49 119 -49 254v11zM293 702q0 -122 26 -224.5t71 -172.5t104.5 -119t125 -71.5t135.5 -22.5q96 0 178 38t142 108.5t94 177t34 237.5q0 139 -34 253.5t-94.5 191 t-144 118t-181.5 41.5q-97 0 -180 -38.5t-144.5 -108.5t-96.5 -175.5t-35 -232.5z" />
<glyph unicode="R" horiz-adv-x="1161" d="M67 0q51 28 51 88v1160q0 65 -51 89h425q84 0 155 -11.5t121.5 -30.5t90 -46t64 -56.5t40.5 -62.5t22 -63t6 -60q0 -51 -15 -97t-40.5 -80.5t-58.5 -62.5t-70.5 -46.5t-75 -29t-72.5 -12.5q38 -4 72 -17.5t54.5 -27t43 -37.5t30.5 -34.5t22 -31.5q238 -372 305 -452 q8 -9 19 -18.5t22.5 -17t24 -14.5t23 -12t19 -9t13.5 -6l4 -2l-255 -4h-4q-50 0 -94 26q-46 27 -77 66q-30 43 -66 97t-62 95.5t-62 98.5t-55 87q-3 4 -16.5 25.5t-18 27t-16.5 23.5t-18.5 24.5t-18.5 19.5t-21 18.5t-21.5 12.5t-25 9.5t-26.5 2.5l-86 -4v-537q0 -60 54 -88 h-355zM368 726q54 -4 88 -4q52 0 99.5 15t88 46t64.5 85.5t24 126.5q0 29 -7 60t-25.5 65.5t-45.5 61t-71.5 43.5t-100.5 17l-114 -4v-512z" />
<glyph unicode="S" horiz-adv-x="927" d="M19 407q12 -44 32 -87.5t52.5 -87t71.5 -76t92 -53t112 -20.5q56 0 101 15.5t73 39.5t46.5 56t26 63t7.5 62q0 45 -14.5 81.5t-36 60.5t-58.5 47.5t-70 38t-84 38.5t-87 44q-135 73 -197 158.5t-62 197.5q0 77 27.5 141t71.5 106.5t101.5 71.5t114.5 41.5t113 12.5 q65 0 147.5 -16.5t149.5 -56.5l10 -290q-11 42 -37 85.5t-65.5 84t-99 66.5t-126.5 26q-54 0 -95.5 -17.5t-65.5 -46t-36 -60.5t-12 -65q0 -26 5.5 -48t14.5 -39t28.5 -35t36.5 -31t50.5 -31t60 -31t74.5 -35q12 -6 38 -18q48 -22 73 -33.5t67 -35.5t64 -43.5t51.5 -51 t44 -65t25 -79t10.5 -98.5q0 -90 -37.5 -168t-100.5 -131.5t-146.5 -83.5t-173.5 -30q-63 0 -122.5 9t-109.5 26t-79.5 29t-65.5 30z" />
<glyph unicode="T" horiz-adv-x="1043" d="M-39 1146v191h1077v-191q-40 77 -92 79q-179 13 -323 13v-1150q0 -58 51 -88h-351q50 28 50 88v1150q-29 0 -62.5 -0.5t-63.5 -1.5t-59 -2.5t-52 -3t-40.5 -3t-27.5 -1.5l-9 -1q-32 -1 -57 -24.5t-41 -54.5z" />
<glyph unicode="U" horiz-adv-x="1220" d="M37 1337h378q-61 -29 -61 -89v-824q0 -46 6.5 -87.5t27 -88t52.5 -79.5t87.5 -55t129.5 -22q85 0 148 26.5t99.5 75t53.5 110t17 137.5l-3 807q0 62 -54 89h228q-51 -26 -51 -89l-5 -804q-1 -98 -24 -176t-64 -131.5t-99.5 -88.5t-128 -51t-151.5 -16q-51 0 -101.5 6.5 t-103 22t-98.5 39t-87 59.5t-70 81.5t-46 107.5t-17 134v817q0 59 -63 89z" />
<glyph unicode="V" horiz-adv-x="1009" d="M-156 1337h435q-47 -18 -47 -67q0 -18 6 -41q2 -8 85 -214.5t165 -408.5l82 -203q313 822 315 835q14 38 5 61.5t-46 37.5h239q-25 -16 -38.5 -30.5t-18.5 -24.5t-17 -40q-15 -34 -142 -355t-246 -624l-120 -304q-511 1210 -550 1283q-19 33 -42.5 56t-64.5 39z" />
<glyph unicode="W" horiz-adv-x="1533" d="M-173 1336h434q-37 -13 -47 -49q-4 -15 -4 -29q0 -21 10 -41l350 -842l122 343q-21 59 -76.5 191t-91.5 214.5t-50 114.5q-1 3 -4 8q-8 17 -14 27t-17.5 25t-27.5 24.5t-36 13.5h407q-23 -9 -33.5 -29t-9 -43t11.5 -47l93 -219l92 233q11 30 11 51q0 43 -45 54h242 q-38 -22 -58.5 -44t-37.5 -61l-149 -358l189 -486l310 820q12 28 12 54q0 13 -2 23q-8 36 -46 52h278q-29 -16 -48 -29.5t-36 -34.5t-29 -47l-522 -1266q-194 471 -254 629l-263 -629q-527 1229 -541 1266q-21 43 -48.5 68t-71.5 43z" />
<glyph unicode="X" horiz-adv-x="1017" d="M-150 -4q48 22 81 52t63 72q237 329 378 540l-364 565q-27 42 -56.5 65t-77.5 47h462q-27 -11 -39.5 -22.5t-11.5 -36.5t24 -63l216 -340l236 363q10 16 10.5 35t-11.5 37t-36 27h296q-74 -35 -116 -95l-315 -473l428 -673q32 -50 47 -63t67 -37h-459q20 10 31.5 19.5 t19.5 24t3.5 34.5t-20.5 46l-269 441l-305 -463q-11 -16 -13 -34.5t11 -38t43 -29.5h-323z" />
<glyph unicode="Y" horiz-adv-x="947" d="M-163 1337h444q-1 0 -4 -1q-18 -7 -26 -11t-18 -13.5t-10 -20.5t6 -30t21 -46l277 -483l259 506q14 22 14 41q0 10 -4 20q-11 28 -51 38h281q-28 -9 -54.5 -29.5t-44 -43t-30.5 -47.5l-315 -598v-531q0 -50 69 -88h-394q20 11 32 20.5t23.5 28t11.5 39.5v524l-384 630 q-15 24 -28.5 40t-30.5 28.5t-44 26.5z" />
<glyph unicode="Z" horiz-adv-x="978" d="M-53 0l694 1242q-40 -1 -80 -1q-49 -1 -99 1q-34 1 -69 1q-57 0 -115 -2q-94 -4 -143 -16q-63 -16 -97.5 -45.5t-52.5 -78.5l3 236h985l-680 -1235q3 0 42.5 -0.5t76.5 -0.5t95.5 1t108.5 3t105 7t95 12q26 4 48 15t35 21.5t25.5 28.5t17.5 27t13 28l-6 -244h-1002z" />
<glyph unicode="[" horiz-adv-x="544" d="M83 -250v1754h424v-39h-173v-1677h177v-38h-428z" />
<glyph unicode="\" horiz-adv-x="984" d="M0 1337h156q40 -93 206 -373.5t352.5 -586.5t227.5 -377h-154q-40 90 -205.5 368.5t-351.5 584t-231 384.5z" />
<glyph unicode="]" horiz-adv-x="544" d="M34 -212h176v1677h-173v39h425v-1754h-428v38z" />
<glyph unicode="^" d="M146 998q-7 10 132 148.5t153 138.5q8 0 80.5 -68.5t139 -140t60.5 -78.5q-4 -5 -35 5t-71 28t-80 37t-67 33l-27 14l-145 -71q-127 -57 -140 -46z" />
<glyph unicode="_" horiz-adv-x="1296" d="M-13 -135h1321v-60h-1321v60z" />
<glyph unicode="`" horiz-adv-x="707" d="M154 1203q0 36 24 59t60 23q58 0 116 -82l89 -115q59 -81 52 -90q-4 -5 -32 3.5t-64.5 24.5t-72 33t-60.5 30l-24 12q-21 12 -31 19t-26.5 20.5t-23.5 29t-7 33.5z" />
<glyph unicode="a" d="M4 227q0 61 32.5 119t104.5 102q42 26 125.5 51.5t157.5 48.5t101 48q13 9 16.5 36t0.5 49q0 70 -39.5 117.5t-115.5 47.5q-192 0 -282 -258v267q69 39 147.5 62t186.5 23q28 0 54 -2.5t60.5 -10t63 -20t57 -35t48.5 -52.5t32.5 -74.5t12.5 -98.5v-499q0 -23 0.5 -30.5 t3 -21.5t8.5 -20t17.5 -13t29.5 -12l-203 -70q-25 15 -38 27t-23.5 38t-13.5 66q-34 -34 -75 -61.5t-101 -48.5t-120 -21q-51 0 -93 16.5t-70 42.5t-48 59t-28.5 65.5t-8.5 62.5zM224 263q0 -71 39 -109t101 -38q100 0 178 75v308q-32 -17 -90 -36t-88 -32 q-67 -28 -103.5 -67.5t-36.5 -100.5z" />
<glyph unicode="b" horiz-adv-x="1024" d="M17 1304l306 54v-516q58 49 118 73.5t145 24.5q70 0 132 -26.5t107.5 -71.5t78.5 -103.5t49.5 -124.5t16.5 -132q0 -99 -33.5 -189t-95 -160t-156 -111t-209.5 -41q-36 0 -74 5t-74 15t-64.5 19.5t-61 24t-48.5 22t-41.5 21.5t-26.5 14v1119q0 22 -5.5 37t-18 24t-21 13 t-24.5 9zM323 144q1 -3 5 -7.5t18 -16.5t30.5 -21t44.5 -16.5t59 -7.5q30 0 62 12t65.5 41.5t59 73.5t42.5 114t17 156q0 77 -15.5 138t-39.5 98.5t-57 62t-65.5 34t-66.5 9.5q-103 0 -159 -61v-609z" />
<glyph unicode="c" horiz-adv-x="839" d="M17 462q0 61 17 124.5t55 127.5t92.5 114t137 81t180.5 31q54 0 120.5 -15.5t107.5 -30.5l40 -16v-304q-39 121 -106 194.5t-156 73.5q-47 0 -87.5 -19.5t-69.5 -54t-50.5 -79.5t-32 -97t-10.5 -106q0 -77 18.5 -144t54 -118.5t93 -81.5t129.5 -30q85 0 151.5 35.5 t106.5 84.5q-1 -24 -13.5 -55t-40 -65.5t-65.5 -63.5t-96 -48t-125 -19q-90 0 -165 27t-127 73t-88.5 108t-53.5 131t-17 142z" />
<glyph unicode="d" horiz-adv-x="1028" d="M17 466q0 89 35 174.5t94.5 152t147.5 107t188 40.5q40 0 73 -7.5t56.5 -19t48.5 -30.5v348q0 20 -5.5 34.5t-19.5 23.5t-22 12t-25 8l305 49v-1214q0 -21 5 -36t17.5 -24.5t20.5 -13t25 -10.5l-295 -79l-2 102q-46 -41 -114 -71.5t-143 -30.5q-117 0 -206.5 63.5 t-136.5 173.5t-47 248zM257 482q0 -73 13.5 -133t37 -99t51 -67.5t58.5 -43.5t57 -22t49 -7q64 0 137 51v608q-1 2 -5 6q-20 22 -32 33.5t-38 22.5t-58 11q-84 0 -146.5 -51t-93 -131.5t-30.5 -177.5z" />
<glyph unicode="e" horiz-adv-x="929" d="M17 458q0 72 19.5 142t59 131.5t94 108t129.5 73.5t161 27q63 0 120 -15t109 -48.5t89.5 -82.5t60 -122t22.5 -163h-624v-41q1 -52 13 -101.5t37 -96t60 -81.5t85.5 -56t110.5 -21q63 0 127.5 30.5t110 74t66.5 87.5q-2 -59 -30 -116.5t-76.5 -104t-123 -74.5t-161.5 -28 q-131 0 -236.5 63t-164 172t-58.5 242zM261 602h386q0 118 -52.5 183t-128.5 65q-89 0 -141.5 -70.5t-63.5 -177.5z" />
<glyph unicode="f" horiz-adv-x="520" d="M-2 814v96h107v144q0 45 8 85.5t29.5 81.5t54.5 70.5t86.5 48t121.5 18.5q116 0 199 -41v-222q-7 39 -25 77.5t-47.5 68t-62.5 29.5q-27 0 -49 -9t-35.5 -22.5t-23.5 -34.5t-14.5 -38t-7 -41t-3 -35.5t-0.5 -29.5v-150h242v-96h-242v-731q0 -35 13 -52t43 -31h-341 q28 15 41 32t13 51v731h-107z" />
<glyph unicode="g" horiz-adv-x="891" d="M-12 -227q0 24 5 45t14.5 38.5t20.5 32t26.5 27t28.5 22t30.5 18.5t29 14.5t26.5 12.5q-4 1 -11 3t-24 11.5t-30 21.5t-24 33t-11 46q0 57 49.5 104t121.5 75q-100 42 -157 124.5t-57 194.5q0 69 27 132t75 109.5t117.5 74.5t150.5 28q90 0 167 -20h304v-89h-167 q33 -31 56.5 -71.5t35.5 -84.5t12 -87q0 -68 -27.5 -129t-76.5 -106.5t-123.5 -72.5t-161.5 -27q-45 0 -69 2q-25 -3 -44 -10t-32 -21.5t-13 -34.5q0 -23 31 -36.5t109 -15.5l175 -4q66 -1 119 -13.5t95.5 -37.5t66 -68.5t23.5 -101.5q0 -72 -36.5 -137t-102 -113.5 t-161 -77t-206.5 -28.5q-64 0 -120 7.5t-104.5 24.5t-83 42t-54.5 61.5t-20 81.5zM141 -177q0 -77 83.5 -123t212.5 -46q50 0 97.5 12t86 33t62 54t23.5 72q0 108 -201 116h-8q-187 7 -244 18q-33 -14 -58 -35t-39.5 -47t-14.5 -54zM240 606q0 -43 5.5 -79t14.5 -63 t22 -48.5t27.5 -36t31.5 -24t34 -13.5t34 -4q75 0 124 63t49 190q0 134 -49 201t-122 67q-76 0 -123.5 -62.5t-47.5 -190.5z" />
<glyph unicode="h" horiz-adv-x="1053" d="M28 1304l304 54v-550q25 26 66 53.5t105.5 53t123.5 25.5q137 0 220 -73.5t83 -213.5v-570q0 -24 7.5 -40t17 -24.5t26.5 -18.5h-328q27 15 40 32t13 51v508q0 205 -185 205q-56 0 -109 -26.5t-80 -61.5v-625q0 -34 12 -51t39 -32h-336q28 15 40.5 32t12.5 51v1142 q0 21 -6 36t-18 23.5t-22 12t-26 7.5z" />
<glyph unicode="i" horiz-adv-x="465" d="M32 889l300 51v-857q0 -34 12 -51t39 -32h-334q17 10 27 18.5t17 24.5t7 40v727q0 23 -6 38.5t-17.5 23t-21 11t-23.5 6.5zM86 1215q0 50 36.5 86t85.5 36q34 0 62.5 -16t45 -44.5t16.5 -61.5q0 -51 -36 -87t-88 -36q-49 0 -85.5 36t-36.5 87z" />
<glyph unicode="j" horiz-adv-x="443" d="M-165 -167q21 -77 58.5 -117t89.5 -40q32 0 55 13.5t33 33t15 39t4 33.5v14v1001q0 11 -1 19.5t-4 15.5t-5 12t-8 9.5t-8 6.5t-9.5 5.5t-9.5 4t-11 3.5t-10 3l300 49v-1071q0 -114 -80.5 -196t-204.5 -82q-60 0 -115 16t-83 39zM77 1215q0 50 37 86t87 36q34 0 62.5 -16 t44.5 -44.5t16 -61.5q0 -51 -36 -87t-87 -36q-50 0 -87 36t-37 87z" />
<glyph unicode="k" horiz-adv-x="923" d="M30 1296l304 62v-831l297 281q35 36 35 59q0 3 -1 6q-5 24 -48 41h315q-33 -17 -49 -25.5t-40.5 -25t-46.5 -35.5l-277 -256l404 -484q20 -24 32 -36t34 -26.5t53 -25.5h-421q29 12 36.5 36.5t-8.5 38.5l-315 379v-371q0 -34 12 -51t39 -32h-336q27 15 39 32t12 51v1134 q0 17 -4.5 30t-10 20.5t-17 13.5t-18.5 8.5t-20 6.5z" />
<glyph unicode="l" horiz-adv-x="465" d="M28 1308l304 50v-1275q0 -34 12 -51t39 -32h-334q17 10 27 18.5t17 24.5t7 40v1142q0 17 -5 30.5t-10 21t-18 14.5t-18 9t-21 8z" />
<glyph unicode="m" horiz-adv-x="1629" d="M30 893l300 47v-130q18 15 29 24t36 27t47.5 29.5t52 24t61.5 19t65 6.5q87 0 163 -43.5t103 -119.5q55 69 137 116t175 47q42 0 83.5 -9t82 -30.5t71.5 -53t49.5 -80t18.5 -107.5v-577q0 -36 11.5 -52.5t39.5 -30.5h-342q29 15 42 32t13 51v529q0 83 -46 136t-132 53 q-49 0 -98.5 -28t-79.5 -71q2 -12 2 -38v-581q0 -24 7.5 -40t17 -24.5t27.5 -18.5h-339q27 15 39.5 32t12.5 51v542q0 79 -41.5 127.5t-132.5 48.5q-104 0 -175 -83v-635q0 -35 13 -52t42 -31h-336q27 15 39 32t12 51v727q0 19 -4.5 32.5t-10 21.5t-17 14t-18 8.5t-20.5 6.5 z" />
<glyph unicode="n" horiz-adv-x="1039" d="M36 897l294 43v-132q33 32 71 58.5t99 50t121 23.5t112.5 -19t93 -54.5t64 -91t23.5 -122.5v-570q0 -34 13 -51t41 -32h-331q29 14 41 31t12 52v499q0 32 -3 58t-14 56.5t-30.5 51t-54.5 34.5t-83 14q-51 0 -99.5 -27t-75.5 -61v-625q0 -34 12 -51t39 -32h-332 q27 15 39 32t12 51v727q0 30 -9.5 48.5t-21.5 25.5t-33 13z" />
<glyph unicode="o" horiz-adv-x="992" d="M17 454q1 75 20 145.5t58 132.5t93.5 108t129.5 73t162 27q89 -1 165 -27t129.5 -71.5t91.5 -105.5q37 -60 55 -130q17 -66 17 -136v-8q-1 -77 -22 -149t-61.5 -132t-96 -105t-128 -70t-154.5 -25q-97 0 -177 29.5t-131.5 77.5t-86.5 111t-49.5 127t-14.5 128zM250 452 q6 -172 70 -276q63 -101 160 -101h6q106 3 162 109q50 95 51 253q0 17 -1 35q-3 105 -29 189.5t-80 137.5q-52 51 -122 51h-5q-72 -2 -121.5 -56.5t-71.5 -142.5q-19 -77 -19 -173v-26z" />
<glyph unicode="p" horiz-adv-x="1039" d="M32 883l294 57v-109q26 26 59 48.5t88 41.5t113 19t114.5 -19t107.5 -58t90 -94t62 -133t23 -168q0 -69 -19.5 -138.5t-58.5 -132t-93 -111t-128 -77t-157 -28.5q-119 0 -201 43v-397q0 -58 53 -79h-334q51 21 51 79v1174q0 40 -17.5 57.5t-46.5 24.5zM326 152 q62 -73 150 -73q125 0 194 104t69 275q0 78 -16 140.5t-41 101t-57.5 64.5t-64 36t-63.5 10q-99 0 -171 -78v-580z" />
<glyph unicode="q" horiz-adv-x="1024" d="M17 439q0 69 19 139.5t58.5 135.5t95 115t135 80.5t170.5 30.5q97 0 213 -53l194 37v-1297q0 -22 6 -37t17.5 -25t29.5 -17h-336q12 5 21 12t15 16t8.5 21.5t2.5 29.5v442q-56 -44 -108.5 -66t-122.5 -22q-82 0 -151.5 26t-118 70t-82.5 103t-50 124.5t-16 134.5z M263 472q0 -75 15.5 -140.5t46.5 -117.5t82 -82t116 -30q39 0 79 16t64 43v592q-1 3 -4 8.5t-14.5 20.5t-26 26t-41 20t-57.5 9q-50 0 -96.5 -24.5t-83 -70t-58.5 -115.5t-22 -155z" />
<glyph unicode="r" horiz-adv-x="642" d="M28 889l304 51v-171q39 68 101.5 119.5t114.5 51.5q10 0 18 -0.5t14.5 -1.5t10.5 -1.5t10 -2t8 -2.5t8.5 -4t9.5 -4v-250q-25 44 -59.5 69.5t-74.5 25.5q-88 0 -161 -88v-598q0 -34 12.5 -51t38.5 -32h-334q17 10 27 18.5t17 24.5t7 40v727q0 43 -19 58t-53 21z" />
<glyph unicode="s" horiz-adv-x="715" d="M15 65v283q12 -52 34.5 -99.5t54 -86t74.5 -61t90 -22.5q46 0 80.5 14t53 36.5t27 44.5t8.5 42q0 14 -2 26t-8 23t-11 19.5t-18 19t-21.5 17.5t-29 19t-32.5 19t-40 22.5t-45 25.5q-117 67 -160.5 128.5t-43.5 148.5q0 30 7.5 58.5t23 58t42 54t62 44t85 30.5t108.5 11 q114 0 228 -51l4 -266q-14 42 -32.5 79t-45 72.5t-63 56.5t-77.5 21q-70 0 -105.5 -32t-35.5 -75q0 -21 8 -40t19 -32t35.5 -30t41 -27t52.5 -29q2 -1 3 -2t2.5 -1.5t3.5 -1.5q2 -2 8 -5q36 -20 54 -31t50.5 -32t50 -37t40.5 -40.5t34.5 -48.5t20.5 -55t9 -65 q0 -57 -24 -106t-62 -81.5t-86 -55.5t-96 -33.5t-92 -10.5q-125 0 -284 84z" />
<glyph unicode="t" horiz-adv-x="593" d="M-8 808l331 310v-204h261v-106h-263v-525q0 -55 14 -96t33 -61.5t46.5 -33t46.5 -15t40 -2.5q25 0 45 5.5t29 12t23 18t19 15.5q-1 -20 -16.5 -44.5t-42 -47.5t-69 -38t-90.5 -15q-142 0 -227.5 81.5t-85.5 220.5v525h-94z" />
<glyph unicode="u" horiz-adv-x="1043" d="M17 890l302 52v-584q0 -60 15 -106t41.5 -73t58.5 -40t69 -13q56 0 97 22t83 62v602q0 18 -4.5 32t-10.5 21.5t-16.5 13t-18.5 8t-20 3.5l295 52v-751q0 -61 17 -91t64 -40l-222 -77q-27 13 -43 27.5t-26 40t-10 63.5q-27 -27 -51.5 -46.5t-60.5 -41t-80 -32.5t-95 -11 q-43 0 -84 10t-84 37.5t-74.5 68.5t-52 109t-20.5 154v450q0 23 -5.5 38t-17 23t-21.5 11t-25 6z" />
<glyph unicode="v" horiz-adv-x="766" d="M-126 910h405q-37 -12 -48 -38.5t3 -57.5l203 -476l186 456q10 23 10 42q0 49 -63 74h269q-60 -19 -92 -96l-379 -838l-394 838q-20 42 -42.5 65.5t-57.5 30.5z" />
<glyph unicode="w" horiz-adv-x="1302" d="M-122 914h411q-58 -20 -58 -65q0 -16 7 -35l184 -468l164 399l-40 83q-32 68 -103 86h424q-41 -13 -57 -40.5t-4 -59.5l171 -462l185 438q9 19 9 38q0 18 -7 36q-14 38 -53 50h277q-21 -11 -41.5 -29t-35.5 -37.5t-24 -39.5l-396 -832l-252 647l-281 -647l-377 842 q-20 42 -43 64t-60 32z" />
<glyph unicode="x" horiz-adv-x="815" d="M-148 0q41 9 80.5 36t57.5 52l273 366l-271 374q-27 36 -46.5 53t-55.5 33h425q-26 -10 -39.5 -21t-13.5 -34t21 -55l148 -213l165 219q13 20 13 38q0 12 -5 23q-14 29 -54 43h309q-40 -21 -63.5 -39t-46.5 -47l-250 -321l295 -424q12 -18 27 -31t25.5 -19t31 -16 t32.5 -17h-418q25 10 37.5 21.5t11.5 34t-24 54.5l-183 263l-210 -285q-11 -14 -14 -30t7 -33t37 -25h-302z" />
<glyph unicode="y" horiz-adv-x="815" d="M-105 910h402q-19 -7 -31 -15t-21 -20.5t-8 -31t11 -42.5l208 -514q137 309 216 517q8 21 8 38q0 20 -11 34q-21 27 -61 34h291q-40 -17 -65 -41t-42 -65q-70 -162 -187 -422t-213 -477.5t-158 -370.5h-208q29 13 51.5 29t40 39.5t26 37.5t25.5 45q37 69 171 343 l-342 780q-22 50 -39.5 66t-56.5 33q-4 2 -7 3z" />
<glyph unicode="z" horiz-adv-x="809" d="M-34 0l503 818h-42q-87 0 -313 -4q-43 -1 -69 -20.5t-41 -58.5l9 179h767l-503 -822q185 0 387 15q30 2 50 9t33.5 23.5t20 29t16.5 39.5l-9 -208h-809z" />
<glyph unicode="{" horiz-adv-x="544" d="M-41 649q36 11 61.5 35t38 57.5t17.5 68.5t5 79v248q0 63 14.5 116t39.5 90.5t60.5 66.5t74 47t84.5 29.5t88 15.5t87 4q-47 -9 -80.5 -24t-60.5 -40t-40.5 -65t-13.5 -95v-310q0 -41 -5.5 -76.5t-14 -62t-24 -49.5t-28.5 -39t-35 -30.5t-37 -23t-41 -17.5t-39.5 -13 t-39.5 -11q-2 -1 -3 -1q31 -8 54.5 -16t52.5 -22t50.5 -30.5t43 -43t35.5 -58t22.5 -76t8.5 -97.5v-334q0 -90 44 -145t151 -80q-52 0 -94 3t-90 13t-84.5 27.5t-71.5 47.5t-58 70t-36.5 99t-13.5 132v268q0 39 -2 66t-9 58t-19.5 52t-36 39t-55.5 27z" />
<glyph unicode="|" horiz-adv-x="328" d="M81 -253v1755h125v-1755h-125z" />
<glyph unicode="}" horiz-adv-x="544" d="M15 -253q107 25 151 80t44 145v334q0 47 6.5 86.5t18.5 70t27 55t36 43.5t40.5 32.5t45.5 24.5t47 17.5t47 13.5q-1 0 -3 1q-33 9 -51.5 14.5t-51 19t-51 27.5t-42.5 39t-37 54.5t-22.5 72.5t-9.5 95v310q0 55 -13 95t-40 65t-60.5 40t-81.5 24q45 0 87 -4t88 -15.5 t84.5 -29.5t74.5 -47t60.5 -66.5t39.5 -90.5t15 -116v-248q0 -44 5 -79t17.5 -68.5t37.5 -57.5t62 -35q-33 -9 -56 -27t-36 -39t-20 -52t-8.5 -58t-1.5 -66v-268q0 -73 -14 -132t-36.5 -99t-58 -70t-72 -47.5t-84.5 -27.5t-90 -13t-94 -3z" />
<glyph unicode="~" d="M116 1073q2 10 15.5 27.5t36.5 37.5t50 38t61 29.5t65 11.5q32 0 116 -30.5t114 -30.5q15 0 29.5 2.5t25 6.5t20 9t16 10t11 9.5l6.5 6.5l2 3l44 -51q-4 -5 -12 -13t-31.5 -29t-47.5 -37.5t-58 -29.5t-65 -13q-46 0 -94.5 18t-85.5 35.5t-55 17.5t-37 -7t-33 -17 t-26 -20.5t-18 -17.5l-6 -7z" />
<glyph unicode="&#xa1;" horiz-adv-x="501" d="M69 -263q0 63 60.5 426.5t86.5 427.5q11 -26 30 -116t38.5 -203.5t38 -227t30 -199.5t11.5 -108q0 -88 -41.5 -138.5t-106.5 -50.5q-67 0 -107 50t-40 139zM92 801q0 51 36 87t88 36t87 -35.5t35 -87.5t-35 -86t-87 -34t-88 34t-36 86z" />
<glyph unicode="&#xa2;" horiz-adv-x="835" d="M13 651q0 58 15 118t48.5 121t82 110t121.5 83t161 41v148h99q0 -22 -1.5 -79t-1.5 -69q22 -2 47 -6.5t46 -10.5t42 -13t37 -13t28.5 -11.5t19.5 -8.5l6 -3v-291q-35 107 -94.5 177t-135.5 82v-722q54 0 98.5 10.5t77 30t53 37t42.5 42.5q-1 -22 -11 -49.5t-31.5 -59 t-51.5 -59.5t-75 -49.5t-98 -29.5q0 -48 1.5 -105t1.5 -59h-99q0 3 1.5 57t1.5 101q-86 3 -158 31t-121.5 74t-84 107t-51 128.5t-16.5 139.5zM253 679q0 -128 50.5 -225t140.5 -130v696q-63 -15 -107.5 -69t-64 -124t-19.5 -148z" />
<glyph unicode="&#xa3;" horiz-adv-x="858" d="M0 666v111q15 0 58 -4t68 -4q-19 41 -28.5 64t-22.5 59.5t-18.5 70t-5.5 67.5q0 59 27 116.5t77.5 105.5t133.5 77t185 29q62 0 146 -18.5t153 -50.5l-4 -269q-6 27 -20.5 58.5t-39.5 65t-55.5 60.5t-73 44.5t-88.5 17.5q-54 0 -94.5 -18.5t-63 -49t-33 -63.5t-10.5 -67 q0 -28 5 -57t10 -49.5t18 -53t19.5 -46t24 -50t22.5 -45.5q73 0 164.5 5t94.5 5v-111q-2 0 -79.5 2t-138.5 2q27 -70 27 -151q0 -55 -14.5 -110t-38.5 -101t-46.5 -80.5t-48 -69.5t-33.5 -48q192 117 393 117h13q26 -1 40 -0.5t40.5 3t45 7t42.5 14t46 23.5 q-151 -232 -173 -278q-55 -16 -109 -16t-94 9.5t-101 19.5t-118 10q-142 0 -251 -38q107 149 147 240t40 180q0 70 -17 134t-50 139q-35 0 -92.5 -4t-78.5 -4z" />
<glyph unicode="&#xa4;" horiz-adv-x="1080" d="M0 531l32 88h153q-3 20 -3 47q0 18 5 97h-185l34 87h165q20 108 63 199t107 159t152.5 106.5t191.5 38.5q54 0 120.5 -15.5t107.5 -30.5l40 -15v-305q-39 121 -106 194.5t-155 73.5q-107 0 -177 -99.5t-89 -305.5q119 0 213 5.5t143 13t81.5 14.5t41.5 12l9 5l-81 -185 l-12 8q-76 35 -399 38h-1h-1q-2 -22 -2 -71q0 -47 2 -71q69 2 127.5 6t97 8.5t69 9t47.5 9t28 8.5t15 6l3 2l-78 -182q-2 4 -12.5 9.5t-86.5 17.5t-202 16q18 -125 64.5 -212.5t113.5 -130t150 -42.5q79 0 146.5 36t107.5 83q-1 -20 -11.5 -47t-29.5 -58.5t-50 -62 t-68 -55.5t-88.5 -40t-108.5 -15q-205 0 -335 143t-158 403h-191z" />
<glyph unicode="&#xa5;" horiz-adv-x="947" d="M-152 1337h445q-2 0 -4 -1q-18 -7 -26.5 -11t-18 -13.5t-9.5 -20.5t5.5 -30t20.5 -46l278 -483l259 506q21 33 10 61t-52 38h282q-22 -7 -42.5 -20t-36.5 -30t-28.5 -34.5t-22.5 -35.5l-304 -578h287v-89h-298v-130h298v-88h-298v-244q0 -50 69 -88h-392q19 11 31 20.5 t23.5 27.5t11.5 40v244h-289v88h289v130h-289v89h276l-372 603q-23 36 -43.5 55.5t-59.5 39.5z" />
<glyph unicode="&#xa6;" horiz-adv-x="328" d="M81 -253v770h125v-770h-125zM81 732v770h125v-770h-125z" />
<glyph unicode="&#xa7;" horiz-adv-x="923" d="M15 540q1 52 24 98t61 78.5t83.5 55t95.5 32.5q-78 53 -113.5 111.5t-35.5 130.5q0 35 11 70t37 70t63 61.5t94.5 43.5t126.5 17q46 0 110.5 -12.5t125.5 -38.5l2 -268q-11 40 -31 78.5t-48 72.5t-66 55.5t-81 21.5q-36 1 -65 -9.5t-45.5 -28t-25 -36.5t-8.5 -38 q0 -27 11.5 -51t36 -46t50.5 -39t67 -41q17 -9 52.5 -28t60.5 -32.5t61.5 -36t62 -42t54 -47t46 -54t28.5 -60.5t11 -69q-1 -44 -15.5 -83.5t-39.5 -69t-58 -53t-70 -39t-76 -23.5q43 -33 72.5 -64t47.5 -62t25.5 -62.5t7.5 -68.5q0 -35 -11.5 -69.5t-38 -69.5t-65.5 -61.5 t-99.5 -43.5t-133.5 -17q-50 0 -119 12t-131 38v269q15 -54 47 -105t83 -88.5t106 -37.5q74 0 113 35.5t41 79.5q2 98 -161 191q-18 10 -52.5 28.5t-61 33t-62.5 36.5t-63 42t-55 47t-46 54.5t-29.5 61.5t-11.5 70zM246 586q-1 -22 6 -42.5t23 -38.5t33 -33.5t45.5 -32.5 t51 -29.5t57.5 -30.5q49 -3 87 8.5t58.5 32.5t30.5 43.5t11 45.5q0 20 -6 38.5t-22 36.5t-30.5 31t-42.5 31t-45.5 28.5t-51.5 29.5q-13 7 -20 11q-40 4 -72.5 -3t-52.5 -21t-34 -33t-20 -37t-6 -35z" />
<glyph unicode="&#xa8;" horiz-adv-x="732" d="M84 1139q0 47 34 80.5t83 33.5q45 0 78.5 -33.5t33.5 -80.5q0 -49 -33.5 -83t-78.5 -34q-49 0 -83 34t-34 83zM392 1139q0 31 15.5 57t41.5 41.5t56 15.5q49 0 82.5 -33.5t33.5 -80.5q0 -33 -15.5 -59.5t-42 -42t-58.5 -15.5q-30 0 -56 15.5t-41.5 42.5t-15.5 59z" />
<glyph unicode="&#xa9;" horiz-adv-x="1584" d="M90 649q0 144 56 275t150 225t223.5 150t272.5 56q144 0 274.5 -56t225.5 -150t151 -225t56 -275q0 -143 -56 -272.5t-151 -223t-225.5 -149t-274.5 -55.5q-143 0 -272.5 55.5t-223.5 149t-150 223t-56 272.5zM161 649q0 -127 50 -243.5t134.5 -201t201.5 -135t245 -50.5 q130 0 247.5 50.5t202 135t134.5 200.5t50 244q0 131 -50 249t-134.5 202.5t-202 134t-247.5 49.5q-103 0 -199 -31.5t-173.5 -90t-136 -136t-90.5 -175t-32 -202.5zM300 647q0 108 37.5 203.5t103.5 166.5t163.5 112t213.5 41q90 0 175 -26t187 -94l-105 -140 q-80 51 -136 69t-123 19q-78 2 -142 -26t-105.5 -77t-64 -112.5t-22.5 -135.5q0 -94 39.5 -171.5t117 -124.5t179.5 -47q68 0 126.5 19t138.5 69l91 -139q-99 -71 -178.5 -96t-177.5 -25q-117 0 -215 39.5t-164 109t-102.5 164t-36.5 202.5z" />
<glyph unicode="&#xaa;" horiz-adv-x="577" d="M2 920q0 84 90 134q28 16 82 31t102 28.5t66 28.5q7 6 9.5 23t0.5 28q0 42 -26 70.5t-74 28.5q-123 0 -185 -155v161q96 51 218 51q27 0 51.5 -3t55.5 -14t53 -29t37 -51.5t15 -79.5v-299q0 -16 1 -22.5t4.5 -14.5t11.5 -12t23 -8l-132 -43q-24 13 -35 28.5t-14 50.5 q-87 -79 -193 -79q-40 0 -72.5 14.5t-51 37.5t-28 47.5t-9.5 47.5zM146 942q0 -43 25 -66t65 -23q65 0 116 46v184q-20 -9 -57 -21t-59 -20q-42 -16 -66 -39.5t-24 -60.5z" />
<glyph unicode="&#xab;" horiz-adv-x="983" d="M43 484v155q20 0 53 9t84 34.5t104 63.5t115.5 103.5t116.5 146.5q-3 -8 -9 -36.5t-12 -55.5t-18 -65.5t-26 -71.5t-36.5 -68.5t-48.5 -62t-63 -46.5t-79 -27q42 -10 79 -32t63 -49t48.5 -62.5t36.5 -68t26 -70.5t18 -64t12 -54.5t9 -36.5q-46 67 -97.5 123.5t-98.5 94 t-91.5 66t-81.5 44t-63 23t-41 7.5zM456 484v155q20 0 52.5 9t83.5 34.5t104.5 63.5t116 103.5t115.5 146.5q-2 -8 -8 -36.5t-12 -55.5t-18 -65.5t-26 -71.5t-36 -68.5t-48 -62t-63 -46.5t-80 -27q38 -9 71.5 -27t58.5 -42t46 -52t36.5 -60t27 -62t20.5 -61.5t14 -54.5 t10 -46.5t7 -31.5q-39 58 -83 108t-84 86t-81 65t-75.5 47t-65 30t-51 17t-32.5 5z" />
<glyph unicode="&#xac;" horiz-adv-x="634" d="M-60 250l567 585v-501h132v-84h-132v-197q0 -34 37 -53h-231q39 22 39 53v197h-412zM126 334h226v259z" />
<glyph unicode="&#xad;" horiz-adv-x="473" d="M22 441v159h393v-159h-393z" />
<glyph unicode="&#xae;" horiz-adv-x="766" d="M28 985q0 100 48.5 184.5t133 134t184.5 49.5q74 0 142.5 -29.5t118 -78.5t79 -117t29.5 -143q0 -76 -29.5 -145t-79 -118.5t-118 -79t-142.5 -29.5q-100 0 -184 49.5t-133 135t-49 187.5zM51 985q0 -95 46 -175t124.5 -126.5t172.5 -46.5q93 0 171.5 47t123 127 t44.5 174q0 56 -16.5 108.5t-47.5 95t-73 74.5t-94 50t-108 18q-93 0 -172 -46.5t-125 -126t-46 -173.5zM218 786v398h223q155 0 155 -118q0 -58 -45.5 -92t-92.5 -26l124 -162h-45l-120 162h-164v-162h-35zM253 977h195q21 0 36.5 3t33.5 11t27.5 27t9.5 48q2 88 -110 86 h-4h-188v-175z" />
<glyph unicode="&#xaf;" d="M116 1056v126h610v-126h-610z" />
<glyph unicode="&#xb0;" horiz-adv-x="636" d="M51 1122q0 102 71.5 174t174.5 72t176 -72t73 -174q0 -103 -73 -175t-176 -72t-174.5 72t-71.5 175zM144 1122q0 -62 45 -108t108 -46q40 0 75.5 21t56.5 57t21 76q0 61 -46 107.5t-107 46.5q-63 0 -108 -46.5t-45 -107.5z" />
<glyph unicode="&#xb1;" horiz-adv-x="1017" d="M67 0v156h837v-156h-837zM67 645v153h338v401h158v-401h341v-153h-341v-401h-158v401h-338z" />
<glyph unicode="&#xb2;" horiz-adv-x="561" d="M-39 542q11 15 74 82t140 154t125 156q68 95 68 173q0 69 -45 113t-115 44q-101 0 -193 -99q6 32 26 64t52.5 62t82.5 48.5t109 18.5q61 0 110.5 -22t79 -56t45 -72t15.5 -73q0 -97 -102 -199l-277 -274h310q18 1 30.5 5.5t19.5 14.5t10.5 17.5t8.5 22.5l4 -180h-578z " />
<glyph unicode="&#xb3;" horiz-adv-x="538" d="M-28 636q23 -12 41 -19.5t36.5 -13t37.5 -8t41 -2.5q97 0 153.5 54t56.5 130q0 158 -269 191q14 6 37.5 15.5t38.5 16t32.5 15t30.5 17t22 16.5q51 51 51 106q0 40 -23.5 70t-52 43t-53.5 13q-68 0 -139 -55q15 43 79 88t148 45q36 0 71.5 -12.5t64 -35t46 -55.5 t17.5 -69q0 -108 -174 -177q61 -5 109 -27.5t76 -55.5t42.5 -70t14.5 -76q0 -43 -18.5 -86t-54 -80t-94 -60t-130.5 -23q-90 0 -150.5 32t-87.5 73z" />
<glyph unicode="&#xb4;" d="M289 998q-3 3 3 16t18 31t27 39.5t31 42.5t29 38t21 27l8 11q24 35 54.5 58.5t61.5 23.5q36 0 61.5 -23t25.5 -59q0 -9 -2 -18t-6.5 -16.5t-9 -14t-12 -13.5t-13 -11.5t-15 -10.5t-14.5 -9l-15 -9l-134 -65q-109 -49 -119 -38z" />
<glyph unicode="&#xb5;" horiz-adv-x="548" d="M-28 651q31 -22 49.5 -33t46.5 -20t58 -9q95 0 151.5 57t56.5 140q0 82 -59 135.5t-147 53.5q-23 0 -38.5 -2t-27.5 -6t-30 -12l68 382h303q22 0 37.5 3.5t22 7.5t17.5 12l-18 -148h-306l-36 -174q22 8 51 12t47 4h18q30 0 61 -7t62.5 -20.5t59 -35t49 -48t34 -62.5 t12.5 -77q0 -119 -90.5 -199t-224.5 -80q-172 0 -227 126z" />
<glyph unicode="&#xb6;" horiz-adv-x="1440" d="M0 972q0 36 6.5 70.5t22 71.5t40 69t63.5 61t89 49t119 32t152 12h446q-55 -26 -55 -89v-1620q0 -58 55 -88h-356q51 30 51 88v982q-70 -26 -153.5 -27.5t-141.5 11t-96 29.5q-22 10 -47.5 25.5t-62 47t-64.5 68t-48 92t-20 116.5zM253 972q0 -53 11.5 -96.5t30.5 -73 t45 -52t53 -35.5t58 -21t56 -10.5t50 -2.5q60 0 76 9v552q-42 2 -100 2q-71 0 -125.5 -21.5t-87.5 -59.5t-50 -86.5t-17 -104.5zM1013 -460q51 28 51 88v1620q0 65 -51 89h345q-50 -23 -50 -89v-1620q0 -62 50 -88h-345z" />
<glyph unicode="&#xb7;" horiz-adv-x="384" d="M49 666q0 52 35.5 88t86.5 36q52 0 88 -36t36 -88q0 -51 -36 -85.5t-88 -34.5q-51 0 -86.5 34.5t-35.5 85.5z" />
<glyph unicode="&#xb8;" horiz-adv-x="839" d="M206 -276q72 -43 108 -59.5t63 -16.5q58 0 94 28.5t36 71.5q0 39 -32.5 65t-77.5 26q-56 0 -116 -43l-13 9l139 236h51l-57 -124q28 -1 54 -5t60 -15t58.5 -28.5t42 -48t17.5 -70.5q0 -74 -65.5 -121.5t-168.5 -47.5q-40 0 -72.5 10t-52 24.5t-34.5 35.5t-21.5 37 t-12.5 36z" />
<glyph unicode="&#xb9;" horiz-adv-x="330" d="M-2 1235l238 123v-762q0 -35 38 -54h-237q42 17 42 54v574q0 45 -22.5 57.5t-58.5 7.5z" />
<glyph unicode="&#xba;" horiz-adv-x="644" d="M12 1058q0 56 20.5 108t57 93t94.5 65.5t129 24.5q72 -1 129.5 -25t93.5 -64t55 -91t19 -107q-1 -78 -38 -143.5t-106 -105.5t-157 -40q-63 0 -115 18t-85 46.5t-55.5 66.5t-32 76.5t-9.5 77.5zM163 1056q2 -68 22 -120t54 -80t78 -27q69 3 104.5 65.5t32.5 173.5 q-3 97 -43.5 163t-110.5 63q-69 -1 -104.5 -68t-32.5 -170z" />
<glyph unicode="&#xbb;" horiz-adv-x="983" d="M59 126q2 8 7 31.5t10 46.5t14 55t20.5 61t27 61.5t36.5 60.5t46.5 52t58.5 42t71 27q-42 7 -79 27t-63 46.5t-48.5 62t-36.5 68.5t-26 71.5t-18 65.5t-12 55.5t-8 36.5q45 -68 96 -125.5t98 -94.5t91 -65t81.5 -43t63.5 -22t42 -7v-155q-18 0 -51 -10t-84 -36 t-104.5 -64t-116.5 -103.5t-116 -144.5zM472 126q3 8 9 36.5t12 54.5t18 64t25.5 70.5t36 68t48.5 62.5t63 49t79 32q-42 7 -79 27t-63 46.5t-48.5 62t-36 68.5t-25.5 71.5t-18 65.5t-12 55.5t-9 36.5q39 -59 83 -109.5t84 -86.5t80.5 -64.5t74.5 -46t64.5 -29.5t51 -16.5 t34.5 -4.5v-155q-19 0 -51.5 -10t-83.5 -36t-104 -64t-116 -103.5t-117 -144.5z" />
<glyph unicode="&#xbc;" horiz-adv-x="1141" d="M-2 1235l238 123v-762q0 -35 38 -54h-237q42 17 42 54v574q0 45 -22.5 57.5t-58.5 7.5zM30 0q37 64 227 375.5t354 589.5t205 372h130q-47 -84 -230 -385.5t-349 -582t-206 -369.5h-131zM446 250l569 585v-501h131v-84h-131v-197q0 -34 37 -53h-232q39 22 39 53v197h-413 zM633 334h226v259z" />
<glyph unicode="&#xbd;" horiz-adv-x="1232" d="M-2 1235l238 123v-762q0 -35 38 -54h-237q42 17 42 54v574q0 45 -22.5 57.5t-58.5 7.5zM30 0q37 64 227 375.5t354 589.5t205 372h130q-47 -84 -230 -385.5t-349 -582t-206 -369.5h-131zM612 0q10 15 73.5 81.5t140.5 154t125 156.5q68 95 68 172q0 69 -45 113.5 t-115 44.5q-101 0 -193 -99q6 31 26 63.5t52.5 62t82.5 48.5t109 19q61 0 110.5 -22t79 -56.5t45 -72.5t15.5 -74q0 -95 -103 -197l-277 -274h310q15 1 26 4.5t17.5 8t12 13.5t8 15t6.5 18l3 -179h-577z" />
<glyph unicode="&#xbe;" horiz-adv-x="1338" d="M-28 636q23 -12 41 -19.5t36.5 -13t37.5 -8t41 -2.5q97 0 153.5 54t56.5 130q0 158 -269 191q14 6 37.5 15.5t38.5 16t32.5 15t30.5 17t22 16.5q51 51 51 106q0 40 -23.5 70t-52 43t-53.5 13q-68 0 -139 -55q15 43 79 88t148 45q36 0 71.5 -12.5t64 -35t46 -55.5 t17.5 -69q0 -108 -174 -177q61 -5 109 -27.5t76 -55.5t42.5 -70t14.5 -76q0 -43 -18.5 -86t-54 -80t-94 -60t-130.5 -23q-90 0 -150.5 32t-87.5 73zM224 0q37 65 227 376t354.5 589t205.5 372h129q-46 -84 -229 -385.5t-349.5 -582t-205.5 -369.5h-132zM641 250l569 585 v-501h131v-84h-131v-197q0 -35 36 -53h-231q39 22 39 53v197h-413zM828 334h226v259z" />
<glyph unicode="&#xbf;" horiz-adv-x="768" d="M30 -175q0 95 77.5 218.5t213.5 275.5q48 56 76 102t40 85t23 100q39 -189 41 -227q1 -58 -8.5 -87.5t-42.5 -79.5q-185 -281 -185 -389q0 -57 21.5 -98.5t56.5 -61t79 -19.5q25 0 48 5t53.5 23t55.5 48t49 84t40 127l4 -277q-52 -55 -135.5 -81.5t-178.5 -26.5 q-39 0 -80.5 7.5t-87 27.5t-80 50t-57.5 80.5t-23 113.5zM330 801q0 51 35.5 87t84.5 36q34 0 62 -16t44 -44.5t16 -62.5q0 -52 -35 -86t-87 -34q-49 0 -84.5 34t-35.5 86z" />
<glyph unicode="&#xc0;" horiz-adv-x="1106" d="M-108 0q40 28 59 47.5t34 48.5q16 33 154.5 354t268.5 625l131 304q523 -1208 558 -1283q9 -18 15 -28t17 -22t26.5 -23t39.5 -23h-420q37 20 47.5 43t-0.5 53q-3 9 -18 45t-44.5 107.5t-50.5 121.5h-481q-104 -239 -110 -272q-14 -35 -4 -57.5t49 -40.5h-271zM199 1636 q0 34 23.5 59t60.5 25q12 0 23 -3t23 -11t19 -13t20 -19.5t16 -18t17 -19.5l89 -121q56 -80 50 -89q-8 -7 -72.5 19.5t-124.5 55.5l-60 30q-11 7 -19 12t-19 13t-18.5 16t-14 18t-10 21.5t-3.5 24.5zM268 472h396l-200 481q-133 -333 -196 -481z" />
<glyph unicode="&#xc1;" horiz-adv-x="1106" d="M-118 0q40 27 58.5 47t33.5 49q17 33 155.5 354t269.5 625l130 304q523 -1208 559 -1283q16 -34 34 -53t64 -43h-421q37 20 47.5 43t-0.5 53q-1 5 -8 22t-18.5 45t-24 57.5t-30 71.5t-31.5 78h-482q-103 -235 -110 -272q-13 -35 -3 -57.5t49 -40.5h-272zM257 472h398 l-201 481q-133 -333 -197 -481zM529 1433q-6 8 28 61t70 102l37 49q16 19 26.5 30.5t27 25.5t32.5 21.5t32 7.5q35 0 60 -25.5t25 -59.5q0 -15 -5.5 -29t-13 -23.5t-20.5 -20t-22 -16.5t-24 -14l-141 -70q-102 -47 -112 -39z" />
<glyph unicode="&#xc2;" horiz-adv-x="1106" d="M-108 0q40 28 59 47.5t34 48.5q16 33 154.5 354t268.5 625l131 304q523 -1208 558 -1283q9 -18 15 -28t17 -22t26.5 -23t39.5 -23h-420q37 20 47.5 43t-0.5 53q-3 9 -18 45t-44.5 107.5t-50.5 121.5h-481q-104 -239 -110 -272q-14 -35 -4 -57.5t49 -40.5h-271zM257 1388 q-6 8 61 81.5t139.5 143.5t81 70t81 -70t140 -143.5t62.5 -81.5q-6 -4 -37 6.5t-71.5 29t-80.5 37.5t-67 33l-27 14l-159 -77q-113 -52 -123 -43zM268 472h396l-200 481q-133 -333 -196 -481z" />
<glyph unicode="&#xc3;" horiz-adv-x="1106" d="M-112 0q40 28 59 47.5t34 48.5q16 33 154.5 354t269.5 625l130 304q523 -1208 558 -1283q16 -34 34.5 -53t63.5 -43h-420q37 20 47.5 43t-0.5 53q-3 9 -18 45t-44.5 107.5t-49.5 121.5h-482q-103 -235 -110 -272q-13 -35 -3.5 -57.5t48.5 -40.5h-271zM227 1467 q2 11 16 29.5t38 40.5t52.5 41t64 31.5t68.5 12.5q32 0 119.5 -32.5t120.5 -32.5q16 0 31 2.5t26.5 7t22 9.5t17.5 10t12.5 9t7.5 7l3 2l41 -51q-4 -5 -12 -13.5t-32.5 -31t-49.5 -39.5t-60 -31t-68 -14q-46 0 -97.5 19.5t-91.5 39t-59 19.5q-13 0 -27.5 -4t-26.5 -10.5 t-23 -14.5t-20 -16t-15.5 -14.5t-9.5 -10.5l-3 -4zM263 472h397l-200 481q-134 -333 -197 -481z" />
<glyph unicode="&#xc4;" horiz-adv-x="1106" d="M-116 0q40 27 58.5 47t33.5 49q17 33 155.5 354t268.5 625l131 304q523 -1208 559 -1283q16 -34 34 -53t64 -43h-421q37 20 47.5 43t-0.5 53q-2 9 -17 45t-45 107.5t-50 121.5h-482q-103 -235 -110 -272q-13 -35 -3 -57.5t49 -40.5h-272zM250 1529q0 49 33.5 82.5 t82.5 33.5q51 0 85.5 -33t34.5 -83q0 -51 -35.5 -85.5t-84.5 -34.5t-82.5 34.5t-33.5 85.5zM259 472h398l-201 481q-134 -333 -197 -481zM568 1529q0 49 34 82.5t82 33.5q50 0 85 -33.5t35 -82.5q0 -51 -35 -85.5t-85 -34.5q-32 0 -58.5 15.5t-42 43t-15.5 61.5z" />
<glyph unicode="&#xc5;" horiz-adv-x="1106" d="M-112 0q40 28 59 47.5t34 48.5q16 33 154.5 354t269.5 625l130 304q523 -1208 558 -1283q16 -34 34.5 -53t63.5 -43h-420q37 20 47.5 43t-0.5 53q-3 9 -18 45t-44.5 107.5t-49.5 121.5h-482q-103 -235 -110 -272q-13 -35 -3.5 -57.5t48.5 -40.5h-271zM263 472h397 l-200 481q-134 -333 -197 -481zM387 1527.5q0 61.5 44 104.5t104 43q62 0 106.5 -43t44.5 -104.5t-44.5 -104.5t-106.5 -43q-60 0 -104 43t-44 104.5zM443 1527.5q0 -38.5 27 -65.5t65 -27q40 0 68 27t28 65.5t-28 65.5t-68 27q-38 0 -65 -27t-27 -65.5z" />
<glyph unicode="&#xc6;" horiz-adv-x="1509" d="M-210 0q37 26 55 44.5t41 51.5q362 538 733 1069q29 42 45 89t8 83h748l6 -173q-44 68 -134 71l-356 3v-452h299q21 0 41.5 18t27.5 38v-209q-6 21 -27 39t-42 18h-299v-578q31 -7 109.5 -10t147.5 0q16 1 47.5 2.5t44 2t37.5 3t36 5t31 7t30 10.5t25.5 15t25.5 20 t21.5 26t22.5 34l-39 -227h-846q30 15 43.5 35t13.5 53v327h-431l-221 -327q-20 -24 -15.5 -49t38.5 -39h-267zM324 519h360v535z" />
<glyph unicode="&#xc7;" horiz-adv-x="1326" d="M19 664q0 105 30 204.5t93 188.5t151 156t212 106t270 39q241 0 461 -101q2 -20 4 -52.5t6.5 -100.5t7 -111.5t1.5 -41.5q-25 57 -58 103t-66.5 77t-72 54t-71.5 35.5t-68.5 20t-60 10t-48.5 2.5q-123 0 -223.5 -43.5t-166.5 -119.5t-101.5 -178.5t-35.5 -221.5 q0 -59 8.5 -118t28 -119t48.5 -113t73 -99.5t98 -80t127 -53t158 -19.5q34 0 69.5 5t88.5 24t100.5 49.5t98 88.5t87.5 135q2 3 -2.5 -67.5t-9.5 -143.5l-5 -72q-223 -126 -500 -126h-33q11 -6 -7 -3q-10 1 -37 7l-21 3q2 -1 4 -1q-131 14 -246.5 68.5t-203 140t-138 207 t-50.5 261.5zM535 -182q39 -28 68 -42t42 -17t29 -3q36 0 58.5 20t22.5 49q0 25 -9 48t-23.5 40t-32 32t-35 25t-32 17t-23.5 10l-9 3l7 15q85 0 147 -23t95 -68.5t33 -108.5q0 -45 -23 -81t-65 -57t-95 -21q-72 0 -113.5 46.5t-41.5 115.5z" />
<glyph unicode="&#xc8;" horiz-adv-x="945" d="M57 0q30 16 44.5 35.5t14.5 52.5v1160q0 62 -59 89h791l5 -173q-27 37 -60.5 52.5t-92.5 18.5q-26 1 -109.5 2t-154.5 1h-70v-452h300q20 0 39.5 18t27.5 38v-209q-7 22 -27 39.5t-40 17.5h-300v-578q32 -4 111.5 -8t147.5 -2q9 0 28 1q40 1 59.5 2t50 4t46 7.5t38 13.5 t37 22t31 31.5t31.5 43.5l-44 -227h-845zM293 1598q0 33 25 59t59 26q14 0 29 -6t24.5 -12t24.5 -21.5t20 -21t20 -24.5l85 -111q63 -89 56 -99q-4 -3 -20 1t-39 13.5t-50 21t-53.5 24t-48 22.5t-34.5 17l-14 7q-18 10 -29.5 18.5t-26 21.5t-21.5 29.5t-7 34.5z" />
<glyph unicode="&#xc9;" horiz-adv-x="945" d="M59 0q30 16 44.5 35.5t14.5 52.5v1160q0 62 -59 89h791l5 -173q-19 25 -39.5 40t-47 22t-66.5 9q-17 1 -57.5 1.5t-86.5 1t-89.5 0.5h-72.5h-28v-452h300q20 0 39.5 18t27.5 38v-209q-7 22 -27 39.5t-40 17.5h-300v-578q32 -4 111.5 -8t147.5 -2q9 0 27 1q41 1 60.5 2 t50 4t46 7.5t38 13.5t37 22t30.5 31.5t32 43.5l-44 -227h-845zM356 1388q-6 8 29.5 60.5t73.5 101.5l38 48q60 85 116 85q35 0 60 -26t25 -59q0 -48 -65 -91q-5 -3 -13 -9l-7 -4l-144 -69q-102 -45 -113 -37z" />
<glyph unicode="&#xca;" horiz-adv-x="945" d="M41 0q30 15 44.5 35t14.5 53v1160q0 63 -59 89h790l6 -173q-14 19 -28.5 31.5t-32.5 21t-39.5 12.5t-52.5 6q-26 1 -109.5 2t-153.5 1h-71v-452h301q13 0 27.5 9t24.5 21.5t15 25.5v-209q-7 22 -27 39.5t-40 17.5h-301v-578q33 -4 112.5 -8t147.5 -2q9 0 27 1q41 1 60 2 t50 4t46.5 7.5t38 13.5t36.5 22t30.5 31.5t31.5 43.5l-43 -227h-846zM179 1388q-5 6 35.5 53.5t93 100.5t98.5 97t52 44t53 -44t99.5 -97t93 -100.5t35.5 -53.5q-7 -7 -77.5 23t-137.5 64l-66 33l-161 -78q-110 -50 -118 -42z" />
<glyph unicode="&#xcb;" horiz-adv-x="945" d="M59 0q30 16 44.5 35.5t14.5 52.5v1160q0 62 -59 89h791l5 -173q-19 25 -39.5 40t-47 22t-66.5 9q-17 1 -57.5 1.5t-86.5 1t-89.5 0.5h-72.5h-28v-452h300q20 0 39.5 18t27.5 38v-209q-7 22 -27 39.5t-40 17.5h-300v-578q32 -4 111.5 -8t147.5 -2q9 0 27 1q41 1 60.5 2 t50 4t46 7.5t38 13.5t37 22t30.5 31.5t32 43.5l-44 -227h-845zM199 1529q0 50 34 83t86 33q49 0 82.5 -33.5t33.5 -82.5q0 -51 -35 -85.5t-85 -34.5q-24 0 -45.5 9t-37 25t-24.5 38.5t-9 47.5zM517 1529q0 24 9.5 45.5t25 37t38 24.5t47.5 9q49 0 82.5 -33.5t33.5 -82.5 q0 -34 -15.5 -61.5t-41.5 -43t-59 -15.5q-51 0 -85.5 34t-34.5 86z" />
<glyph unicode="&#xcc;" horiz-adv-x="524" d="M65 0q51 28 51 88v1160q0 65 -51 89h352q-51 -26 -51 -89v-1160q0 -58 51 -88h-352zM75 1598q0 22 11.5 41.5t31.5 31.5t43 12q22 0 46 -15t38.5 -30t35.5 -40l82 -111q61 -89 54 -99q-3 -3 -19 1t-38 13.5t-48.5 21t-52.5 24t-47 22.5t-34 17l-13 7q-21 12 -31 19 t-27 21t-24.5 30t-7.5 34z" />
<glyph unicode="&#xcd;" horiz-adv-x="524" d="M60 0q56 27 56 88v1160q0 65 -56 89h357q-51 -26 -51 -89v-1160q0 -58 51 -88h-357zM83 1388q-5 8 30 60.5t72 101.5l37 48q18 23 25.5 31t25 24.5t33 23t32.5 6.5q36 0 61 -25.5t25 -59.5q0 -36 -25.5 -62.5t-62.5 -41.5l-143 -69q-101 -45 -110 -37z" />
<glyph unicode="&#xce;" horiz-adv-x="524" d="M-39 1388q-7 8 61 81.5t141 143.5t81 70q6 0 53 -44t99.5 -97t93 -100.5t35.5 -53.5q-3 -3 -20.5 2t-42.5 15.5t-54.5 23.5t-58.5 27t-52.5 25.5t-38.5 19.5l-14 7l-157 -76q-115 -53 -126 -44zM67 0q51 28 51 88v1160q0 65 -51 89h352q-51 -24 -51 -89v-1160 q0 -60 51 -88h-352z" />
<glyph unicode="&#xcf;" horiz-adv-x="524" d="M-26 1529q0 48 35 82t81 34q52 0 86 -33t34 -83q0 -51 -35 -85.5t-85 -34.5q-32 0 -58.5 15.5t-42 43t-15.5 61.5zM67 0q51 28 51 88v1160q0 65 -51 89h352q-51 -24 -51 -89v-1160q0 -60 51 -88h-352zM293 1529q0 49 33.5 82.5t82.5 33.5t84.5 -33.5t35.5 -82.5 q0 -51 -35 -85.5t-85 -34.5q-32 0 -58.5 15.5t-42 43t-15.5 61.5z" />
<glyph unicode="&#xd0;" horiz-adv-x="1424" d="M-34 643v96h152v509q0 63 -51 89h522q134 0 247 -26t191 -68.5t139.5 -100.5t98 -117.5t60.5 -124t32.5 -116t8.5 -96.5q0 -104 -31 -202.5t-96 -187t-157.5 -154.5t-223.5 -105t-286 -39h-505q51 30 51 88v555h-152zM368 102h157q82 0 152 13t124.5 38t99 58.5t76 76 t54.5 89t36.5 99.5t19.5 105t6 107q0 53 -8.5 105.5t-28 107t-49 103.5t-74 92t-99 74.5t-128 49.5t-158.5 18q-151 0 -180 -3v-496h153v-96h-153v-541z" />
<glyph unicode="&#xd1;" horiz-adv-x="1308" d="M-13 1337h337l726 -865v776q0 64 -52 89h219q-52 -26 -52 -89v-1303q-943 1113 -943 1128v-985q0 -59 55 -88h-218q51 30 51 88v1051q0 59 -4 75t-31 48q-35 44 -88 75zM332 1467q2 14 24.5 39.5t54.5 51.5t76.5 45t84.5 19q33 0 121 -32.5t117 -32.5q35 0 65 12t43 23 l12 12l45 -51q-4 -5 -12 -13.5t-33.5 -31t-51 -39.5t-61.5 -31t-68 -14q-46 0 -97.5 19.5t-91 39t-57.5 19.5q-14 0 -28.5 -4t-26.5 -10.5t-23 -14.5t-19 -16t-14 -14.5t-10 -10.5l-3 -4z" />
<glyph unicode="&#xd2;" horiz-adv-x="1535" d="M15 681q2 102 34.5 201t96.5 186t152 152.5t209 102.5t258 35q102 -1 203.5 -30t194 -87.5t163 -139.5t111.5 -194t39 -243q-2 -133 -45.5 -247t-116 -193.5t-167.5 -135.5t-200 -82t-214 -25q-147 2 -279.5 55.5t-230.5 144.5t-154 221.5t-54 278.5zM289 702 q-1 -122 25.5 -224t71 -172t104.5 -119t125.5 -72t135.5 -23q96 0 178 38t141.5 108.5t93.5 177t35 237.5q1 139 -33 253.5t-94.5 191t-143.5 118t-181 41.5q-97 0 -180.5 -38.5t-145 -108.5t-96.5 -175.5t-36 -232.5zM546 1598q0 22 11.5 41.5t31 31.5t42.5 12 q17 0 33.5 -7t33.5 -22t26.5 -25.5t26.5 -30.5l83 -111q63 -89 55 -99q-4 -3 -19.5 1t-38 13.5t-49 21t-52.5 24t-47 22.5t-34 17l-13 7q-21 12 -31.5 19t-26.5 21t-24 30t-8 34z" />
<glyph unicode="&#xd3;" horiz-adv-x="1538" d="M19 681q2 102 34.5 201t96.5 186t152 152.5t208.5 102.5t258.5 35q102 -1 203.5 -30t194 -87.5t163 -139.5t111.5 -194t39 -243q-2 -133 -45.5 -247t-116 -193.5t-168 -135.5t-200 -82t-213.5 -25q-147 2 -280 55.5t-230.5 144.5t-154 221.5t-53.5 278.5zM293 702 q-1 -122 25.5 -224t71 -172t104 -119t125.5 -72t136 -23q96 0 178 38t141.5 108.5t93.5 177t35 237.5q1 139 -33 253.5t-94.5 191t-143.5 118t-181 41.5q-97 0 -180.5 -38.5t-145 -108.5t-96.5 -175.5t-36 -232.5zM615 1388q-6 8 28 60.5t71 101.5l37 48q21 25 35.5 40 t38.5 30t46 15q36 0 61 -25.5t25 -59.5q0 -18 -7.5 -34.5t-23.5 -29.5t-28 -21t-31 -19l-144 -70q-99 -44 -108 -36z" />
<glyph unicode="&#xd4;" horiz-adv-x="1538" d="M19 681q2 102 34.5 201t96.5 186t152 152.5t208.5 102.5t258.5 35q102 -1 203.5 -30t194 -87.5t163 -139.5t111.5 -194t39 -243q-2 -133 -45.5 -247t-116 -193.5t-168 -135.5t-200 -82t-213.5 -25q-147 2 -280 55.5t-230.5 144.5t-154 221.5t-53.5 278.5zM293 702 q-1 -122 25.5 -224t71 -172t104 -119t125.5 -72t136 -23q96 0 178 38t141.5 108.5t93.5 177t35 237.5q1 139 -33 253.5t-94.5 191t-143.5 118t-181 41.5q-97 0 -180.5 -38.5t-145 -108.5t-96.5 -175.5t-36 -232.5zM474 1388q-4 6 36.5 53.5t92.5 100.5t98.5 97t53.5 44 q10 0 82.5 -70t138.5 -143.5t60 -81.5q-5 -4 -36 6.5t-71 29t-80 37.5t-67 33l-27 14l-159 -77q-112 -51 -122 -43z" />
<glyph unicode="&#xd5;" horiz-adv-x="1538" d="M19 681q2 102 34.5 201t96.5 186t152 152.5t208.5 102.5t258.5 35q102 -1 203.5 -30t194 -87.5t163 -139.5t111.5 -194t39 -243q-2 -133 -45.5 -247t-116 -193.5t-168 -135.5t-200 -82t-213.5 -25q-147 2 -280 55.5t-230.5 144.5t-154 221.5t-53.5 278.5zM293 702 q-1 -122 25.5 -224t71 -172t104 -119t125.5 -72t136 -23q96 0 178 38t141.5 108.5t93.5 177t35 237.5q1 139 -33 253.5t-94.5 191t-143.5 118t-181 41.5q-97 0 -180.5 -38.5t-145 -108.5t-96.5 -175.5t-36 -232.5zM437 1467q3 14 25 39.5t54 51.5t76 45t85 19 q32 0 119 -32.5t120 -32.5q35 0 64 12t40 23l12 12l45 -51q-4 -5 -12 -13.5t-32.5 -31t-49 -39.5t-60 -31t-68.5 -14q-47 0 -99.5 19.5t-91.5 39t-56 19.5q-14 0 -29 -4t-27 -10.5t-23 -14.5t-19.5 -16t-15 -14.5t-9.5 -10.5l-3 -4z" />
<glyph unicode="&#xd6;" horiz-adv-x="1538" d="M19 681q2 102 34.5 201t96.5 186t152 152.5t208.5 102.5t258.5 35q102 -1 203.5 -30t194 -87.5t163 -139.5t111.5 -194t39 -243q-2 -133 -45.5 -247t-116 -193.5t-168 -135.5t-200 -82t-213.5 -25q-147 2 -280 55.5t-230.5 144.5t-154 221.5t-53.5 278.5zM293 702 q-1 -122 25.5 -224t71 -172t104 -119t125.5 -72t136 -23q96 0 178 38t141.5 108.5t93.5 177t35 237.5q1 139 -33 253.5t-94.5 191t-143.5 118t-181 41.5q-97 0 -180.5 -38.5t-145 -108.5t-96.5 -175.5t-36 -232.5zM478 1529q0 24 9 45.5t25 37t38.5 24.5t47.5 9 q49 0 82 -33.5t33 -82.5q0 -34 -16 -61.5t-43.5 -43t-60.5 -15.5q-24 0 -45.5 9t-36.5 25t-24 38.5t-9 47.5zM796 1529q0 24 9 45.5t25 37t38 24.5t48 9q49 0 82.5 -33.5t33.5 -82.5q0 -51 -33.5 -85.5t-82.5 -34.5q-52 0 -86 34t-34 86z" />
<glyph unicode="&#xd7;" horiz-adv-x="1009" d="M26 348l320 305l-320 302l120 122l326 -308l329 310l125 -120l-328 -306l328 -307l-120 -136l-334 325l-339 -323z" />
<glyph unicode="&#xd8;" horiz-adv-x="1538" d="M15 681q2 102 34.5 201t96.5 185.5t152 152t209 103t258 35.5q207 -3 383 -110q16 18 31.5 37t24.5 31t19.5 25.5t12.5 16.5h171q-19 -21 -156 -180q109 -94 170.5 -224t58.5 -290q-2 -133 -46 -247t-117 -193t-169 -135t-201 -82.5t-214 -25.5q-220 3 -399 115 q-79 -96 -96 -120h-175q10 12 38.5 44.5t62.5 73t68 81.5q-103 94 -161 225t-56 281zM293 702q0 -214 84 -360q360 417 665 782q-56 65 -132 99t-163 34q-97 0 -180.5 -38.5t-144 -108.5t-95 -175.5t-34.5 -232.5zM446 230q130 -138 309 -138q95 0 176.5 38t142 108.5 t95 177t34.5 237.5q0 210 -92 360q-410 -478 -665 -783z" />
<glyph unicode="&#xd9;" horiz-adv-x="1220" d="M37 1337h378q-63 -30 -63 -89v-824q0 -31 3.5 -61t12.5 -64t23.5 -63t38.5 -56t54.5 -46t75 -30.5t97.5 -11.5q84 0 147 26.5t99.5 75t54 110t17.5 137.5l-3 807q0 62 -56 89h230q-51 -24 -51 -89l-7 -804q-2 -122 -37 -212.5t-98.5 -144.5t-145.5 -80t-184 -26 q-39 0 -77.5 4t-79.5 13t-79 22.5t-75 34t-68.5 46t-58.5 59.5t-45.5 74t-29 90t-10.5 107v817q0 59 -63 89zM407 1598q0 34 24.5 59.5t61.5 25.5q20 0 43.5 -15t38 -30t35.5 -40l82 -111q61 -89 53 -99q-3 -3 -18.5 1t-38 13.5t-49 21t-52 24t-46.5 22.5t-35 17l-13 7 q-25 14 -40.5 25.5t-30.5 33t-15 45.5z" />
<glyph unicode="&#xda;" horiz-adv-x="1220" d="M37 1337h378q-63 -30 -63 -89v-824q0 -31 3.5 -61t12.5 -64t23.5 -63t38.5 -56t54.5 -46t75 -30.5t97.5 -11.5q84 0 147 26.5t99.5 75t54 110t17.5 137.5l-3 807q0 62 -56 89h230q-51 -24 -51 -89l-7 -804q-2 -122 -37 -212.5t-98.5 -144.5t-145.5 -80t-184 -26 q-39 0 -77.5 4t-79.5 13t-79 22.5t-75 34t-68.5 46t-58.5 59.5t-45.5 74t-29 90t-10.5 107v817q0 59 -63 89zM503 1388q-4 8 30 60.5t70 101.5l36 48q21 25 35.5 40t39 30t45.5 15q36 0 61.5 -25.5t25.5 -59.5q0 -18 -8 -34t-24 -30t-26.5 -21t-31.5 -19l-143 -69 q-100 -45 -110 -37z" />
<glyph unicode="&#xdb;" horiz-adv-x="1220" d="M37 1337h378q-63 -30 -63 -89v-824q0 -31 3.5 -61t12.5 -64t23.5 -63t38.5 -56t54.5 -46t75 -30.5t97.5 -11.5q84 0 147 26.5t99.5 75t54 110t17.5 137.5l-3 807q0 62 -56 89h230q-51 -24 -51 -89l-7 -804q-2 -122 -37 -212.5t-98.5 -144.5t-145.5 -80t-184 -26 q-39 0 -77.5 4t-79.5 13t-79 22.5t-75 34t-68.5 46t-58.5 59.5t-45.5 74t-29 90t-10.5 107v817q0 59 -63 89zM356 1388q-5 6 36.5 53.5t94.5 100.5t99 97t51 44q10 0 83 -70t139.5 -143.5t60.5 -81.5q-5 -4 -36 6.5t-71.5 29t-80.5 37.5t-67 33l-28 14l-158 -77 q-113 -52 -123 -43z" />
<glyph unicode="&#xdc;" horiz-adv-x="1220" d="M37 1337h378q-63 -30 -63 -89v-824q0 -31 3.5 -61t12.5 -64t23.5 -63t38.5 -56t54.5 -46t75 -30.5t97.5 -11.5q84 0 147 26.5t99.5 75t54 110t17.5 137.5l-3 807q0 62 -56 89h230q-51 -24 -51 -89l-7 -804q-2 -122 -37 -212.5t-98.5 -144.5t-145.5 -80t-184 -26 q-39 0 -77.5 4t-79.5 13t-79 22.5t-75 34t-68.5 46t-58.5 59.5t-45.5 74t-29 90t-10.5 107v817q0 59 -63 89zM344 1529q0 50 34 83t86 33q24 0 45.5 -9t37 -24.5t24.5 -37t9 -45.5q0 -51 -35.5 -85.5t-84.5 -34.5q-32 0 -59 15.5t-42 43t-15 61.5zM662 1529q0 24 9.5 45.5 t25 37t38 24.5t47.5 9q49 0 83 -33.5t34 -82.5q0 -51 -33.5 -85.5t-83.5 -34.5q-51 0 -85.5 34t-34.5 86z" />
<glyph unicode="&#xdd;" horiz-adv-x="947" d="M-163 1337h444q-1 0 -4 -1q-18 -7 -26 -11t-18 -13.5t-10 -20.5t6 -30t21 -46l277 -483l259 506q22 33 10.5 61t-51.5 38h281q-28 -9 -54.5 -29.5t-44 -43t-30.5 -47.5l-315 -598v-531q0 -50 69 -88h-394q20 11 32 20.5t23.5 28t11.5 39.5v524l-384 630q-15 24 -28.5 40 t-30.5 28.5t-44 26.5zM450 1388q-6 8 29.5 60.5t73.5 101.5l38 48q60 85 117 85q34 0 59 -26t25 -59q0 -48 -65 -91q-4 -3 -13 -9l-6 -4l-145 -69q-103 -45 -113 -37z" />
<glyph unicode="&#xde;" horiz-adv-x="1032" d="M63 0q55 30 55 88v1160q0 65 -51 89h352q-51 -23 -51 -89v-177h141q82 0 151.5 -11.5t119 -32t88.5 -49.5t63.5 -60.5t40.5 -69t22 -72t6 -70.5q0 -61 -20 -116t-47.5 -92t-64 -68t-61.5 -46.5t-48 -25.5q-38 -17 -96 -29.5t-141.5 -11.5t-153.5 27v-256q0 -58 51 -88 h-356zM368 424q16 -9 76 -9q37 0 72.5 5.5t79 24t75.5 49t54 85t22 127.5q0 45 -10 85t-32.5 74.5t-54.5 60t-78.5 39.5t-103.5 14l-100 -2v-553z" />
<glyph unicode="&#xdf;" horiz-adv-x="1079" d="M45 0q20 11 28.5 17t15.5 20t7 36v865q0 35 4.5 70.5t17 78t32 80t52.5 73.5t75.5 61.5t103.5 41t135 15.5q55 0 108.5 -10.5t103 -34.5t87 -58.5t60 -86t22.5 -114.5q0 -59 -25 -111t-67 -90.5t-95.5 -65t-113.5 -38.5q59 -3 117.5 -18.5t115 -45.5t99.5 -72 t69.5 -102.5t26.5 -131.5q0 -56 -18.5 -111t-60 -107t-100 -91t-145 -61t-189.5 -19q-110 0 -119 4v98q34 -2 73.5 2t84 15.5t84.5 35.5t73 56.5t52.5 83.5t19.5 112q0 73 -30.5 130.5t-82 92t-116.5 52t-139 16.5v108q67 4 122.5 32t91 84.5t35.5 131.5q0 52 -19.5 101.5 t-60 83t-90.5 33.5q-31 0 -56 -9t-41.5 -24t-28.5 -37.5t-18.5 -44t-10 -50.5t-4.5 -50t-1 -49v-998h-285z" />
<glyph unicode="&#xe0;" d="M6 227q0 61 33 119t105 102q42 26 125.5 51.5t156.5 48.5t101 48q13 9 16 36t1 49q0 45 -15.5 81t-51.5 60t-87 24q-57 0 -104.5 -22.5t-81 -61.5t-57 -81t-40.5 -93v267q69 39 147.5 62t186.5 23q28 0 54 -2.5t60 -10t63 -20t57.5 -35t48.5 -52.5t32.5 -74.5t12.5 -98.5 v-499q0 -23 0.5 -30.5t3 -21.5t8.5 -20t17.5 -13t29.5 -12l-203 -70q-25 15 -38 27t-23.5 38t-13.5 66q-34 -34 -75 -61.5t-101 -48.5t-121 -21q-50 0 -92.5 16.5t-70 42.5t-47.5 59t-28.5 65.5t-8.5 62.5zM208 1203q0 24 11.5 43t31 29t44.5 10q32 0 63 -23.5t55 -58.5 l86 -115q58 -81 51 -90q-5 -5 -33 3.5t-64 24.5t-72 33t-60 30l-24 12q-21 12 -31 19t-26.5 20.5t-24 29t-7.5 33.5zM227 263q0 -71 38.5 -109t100.5 -38q100 0 178 75v308q-32 -17 -90 -36t-88 -32q-67 -28 -103 -67t-36 -101z" />
<glyph unicode="&#xe1;" d="M6 227q0 62 31.5 120.5t101.5 100.5q34 22 94 43t113 34.5t105 32.5t74 38q17 16 17 85q0 45 -15 81t-50.5 60t-86.5 24q-57 0 -105 -22.5t-82.5 -61t-59 -81.5t-41.5 -93l3 267q149 85 336 85q27 0 53 -2.5t59.5 -10t62 -20t57 -35t48 -52.5t32 -74.5t12.5 -98.5v-499 q0 -21 0.5 -30t3.5 -22t9 -19.5t17 -13.5t29 -12l-203 -70q-38 22 -54.5 47t-20.5 84q-36 -34 -76.5 -61.5t-101 -48.5t-120.5 -21q-50 0 -91.5 16.5t-69 42.5t-46.5 59t-27 65t-8 63zM220 263q0 -71 40.5 -109t105.5 -38q98 0 173 75v308q-24 -14 -51 -23.5t-62 -21 t-64 -23.5q-67 -29 -104.5 -68t-37.5 -100zM289 998q-3 3 3 16t18 31t27 39.5t31 42.5t29 38t21 27l8 11q24 35 54.5 58.5t61.5 23.5q36 0 61.5 -23t25.5 -59q0 -9 -2 -18t-6.5 -16.5t-9 -14t-12 -13.5t-13 -11.5t-15 -10.5t-14.5 -9l-15 -9l-134 -65q-109 -49 -119 -38z " />
<glyph unicode="&#xe2;" d="M6 227q0 62 31.5 120.5t101.5 100.5q42 27 126.5 52.5t159.5 48.5t102 47q15 14 15 85q0 33 -9.5 62t-27 52.5t-47.5 37t-68 13.5q-57 0 -105 -22.5t-82.5 -61t-59 -81.5t-41.5 -93l5 267q145 85 334 85q27 0 53 -2.5t59.5 -10t62 -20t57 -35t48 -52.5t32 -74.5 t12.5 -98.5v-499q0 -21 0.5 -30t3.5 -22t9 -19.5t17 -13.5t29 -12l-203 -70q-25 15 -38 27t-23.5 38t-13.5 66q-34 -34 -74.5 -61.5t-101 -48.5t-120.5 -21q-51 0 -93 16.5t-69 42.5t-46.5 59t-27.5 65t-8 63zM146 998q-7 10 132 148.5t153 138.5q8 0 80.5 -68.5t139 -140 t60.5 -78.5q-4 -5 -35 5t-71 28t-80 37t-67 33l-27 14l-145 -71q-127 -57 -140 -46zM222 263q0 -71 39.5 -109t104.5 -38q96 0 174 75v308q-32 -17 -90 -36t-88 -32q-67 -28 -103.5 -67.5t-36.5 -100.5z" />
<glyph unicode="&#xe3;" d="M6 227q0 62 31.5 120.5t101.5 100.5q42 27 126.5 52.5t159.5 48.5t102 47q15 14 15 85q0 33 -9.5 62t-27 52.5t-47.5 37t-68 13.5q-57 0 -105 -22.5t-82.5 -61t-59 -81.5t-41.5 -93l5 267q145 85 334 85q27 0 53 -2.5t59.5 -10t62 -20t57 -35t48 -52.5t32 -74.5 t12.5 -98.5v-499q0 -21 0.5 -30t3.5 -22t9 -19.5t17 -13.5t29 -12l-203 -70q-25 15 -38 27t-23.5 38t-13.5 66q-34 -34 -74.5 -61.5t-101 -48.5t-120.5 -21q-51 0 -93 16.5t-69 42.5t-46.5 59t-27.5 65t-8 63zM116 1073q2 10 15.5 27.5t36.5 37.5t50 38t61 29.5t65 11.5 q32 0 116 -30.5t114 -30.5q15 0 29.5 2.5t25 6.5t20 9t16 10t11 9.5l6.5 6.5l2 3l44 -51q-4 -5 -12 -13t-31.5 -29t-47.5 -37.5t-58 -29.5t-65 -13q-46 0 -94.5 18t-85.5 35.5t-55 17.5t-37 -7t-33 -17t-26 -20.5t-18 -17.5l-6 -7zM222 263q0 -71 39.5 -109t104.5 -38 q96 0 174 75v308q-32 -17 -90 -36t-88 -32q-67 -28 -103.5 -67.5t-36.5 -100.5z" />
<glyph unicode="&#xe4;" d="M6 227q0 62 31.5 120.5t101.5 100.5q42 27 126.5 52.5t159.5 48.5t102 47q15 14 15 85q0 33 -9.5 62t-27 52.5t-47.5 37t-68 13.5q-57 0 -105 -22.5t-82.5 -61t-59 -81.5t-41.5 -93l5 267q145 85 334 85q27 0 53 -2.5t59.5 -10t62 -20t57 -35t48 -52.5t32 -74.5 t12.5 -98.5v-499q0 -21 0.5 -30t3.5 -22t9 -19.5t17 -13.5t29 -12l-203 -70q-25 15 -38 27t-23.5 38t-13.5 66q-34 -34 -74.5 -61.5t-101 -48.5t-120.5 -21q-51 0 -93 16.5t-69 42.5t-46.5 59t-27.5 65t-8 63zM163 1139q0 48 32.5 81t81.5 33q46 0 79.5 -33.5t33.5 -80.5 q0 -49 -33.5 -83t-79.5 -34q-49 0 -81.5 33.5t-32.5 83.5zM222 263q0 -71 39.5 -109t104.5 -38q96 0 174 75v308q-32 -17 -90 -36t-88 -32q-67 -28 -103.5 -67.5t-36.5 -100.5zM472 1139q0 47 33 80.5t79 33.5t80 -33.5t34 -80.5q0 -49 -34 -83t-80 -34t-79 34t-33 83z" />
<glyph unicode="&#xe5;" d="M6 227q0 61 33 119t105 102q41 26 124.5 51.5t157.5 48.5t101 48q15 14 15 85q0 45 -15 81t-50.5 60t-86.5 24q-46 0 -86.5 -15.5t-70.5 -40t-55 -59t-42 -69.5t-29 -74v267q70 39 147.5 62t186.5 23q27 0 53.5 -2.5t60.5 -10t62.5 -20t57.5 -35t49 -52.5t32.5 -74.5 t12.5 -98.5v-499v-10q0 -18 0.5 -26t3 -20t8 -18t16 -12t27.5 -11l-199 -70q-27 15 -40 27t-23.5 38t-11.5 66q-142 -131 -298 -131q-50 0 -92 16.5t-70 42.5t-47.5 59t-28 65.5t-8.5 62.5zM224 263q0 -71 39 -109t103 -38q103 0 174 75v308q-31 -18 -91.5 -37.5 t-86.5 -30.5q-66 -28 -102 -67t-36 -101zM279 1142q0 62 44 104.5t103 42.5q63 0 107.5 -42.5t44.5 -104t-44.5 -104.5t-107.5 -43q-39 0 -72.5 19.5t-54 53.5t-20.5 74zM334 1142.5q0 -38.5 27 -65.5t65 -27q41 0 69 27t28 65.5t-28 65.5t-69 27q-38 0 -65 -27t-27 -65.5z " />
<glyph unicode="&#xe6;" horiz-adv-x="1437" d="M4 227q0 138 133 221q42 26 125.5 51.5t157.5 48.5t101 48q18 10 18 78q0 71 -40 119.5t-116 48.5q-185 0 -283 -256l5 264q68 37 145.5 60.5t186.5 23.5q54 0 100.5 -13t72 -28.5t49 -28t37.5 -12.5q13 0 38 12.5t53.5 28t83 28.5t118.5 13q53 0 101.5 -10.5t94 -32 t82.5 -56.5t65 -81.5t43 -110.5t15 -140h-623v-41q0 -51 12 -100.5t36.5 -95t60 -80t86 -55.5t109.5 -21q27 0 55 7t52.5 18t49.5 26t45.5 32t40.5 36t35 36.5t28 34.5q-3 -59 -31 -116.5t-76.5 -104t-122.5 -75t-160 -28.5q-76 0 -137 17.5t-96.5 42t-61 49t-43 42 t-30.5 17.5q-12 0 -31.5 -17t-47 -41t-64.5 -48t-97 -40.5t-131 -16.5q-50 0 -92.5 16.5t-69.5 42.5t-46.5 59t-27.5 65t-8 63zM220 263q0 -71 39 -109t101 -38q56 0 97.5 28t67.5 74q5 10 8.5 43t4.5 72.5t1.5 77.5t-0.5 63v25q-26 -14 -53 -23.5t-61.5 -21t-64.5 -23.5 q-67 -28 -103.5 -67.5t-36.5 -100.5zM771 598h387q0 120 -54.5 182t-133.5 62q-90 0 -141 -67.5t-58 -176.5z" />
<glyph unicode="&#xe7;" horiz-adv-x="839" d="M17 462q0 61 17 124.5t55 127.5t92.5 114t137 81t180.5 31q54 0 120.5 -15.5t107.5 -30.5l40 -16v-304q-39 121 -106 194.5t-156 73.5q-47 0 -87.5 -19.5t-69.5 -54t-50.5 -79.5t-32 -97t-10.5 -106q0 -77 18.5 -144t54 -118.5t93 -81.5t129.5 -30q85 0 151.5 35.5 t106.5 84.5q-1 -24 -13.5 -55t-40 -65.5t-65.5 -63.5t-96 -48t-125 -19q-25 0 -37 2l-30 -66q28 -1 54 -5t60 -15t58.5 -28.5t42 -48t17.5 -70.5q0 -74 -65.5 -121.5t-168.5 -47.5q-40 0 -72.5 10t-52 24.5t-34.5 35.5t-21.5 37t-12.5 36q72 -43 108 -59.5t63 -16.5 q58 0 94 28.5t36 71.5q0 39 -32.5 65t-77.5 26q-56 0 -116 -43l-13 9l107 183q-88 16 -158 62t-112.5 111.5t-65 142t-22.5 158.5z" />
<glyph unicode="&#xe8;" horiz-adv-x="929" d="M17 458q0 72 19.5 142t59 131.5t94 108t129.5 73.5t161 27q63 0 120 -15t109 -48.5t89.5 -82.5t60 -122t22.5 -163h-624v-41q1 -52 13 -101.5t37 -96t59 -81.5t84 -56t109 -21q96 0 185 60.5t123 131.5q-2 -59 -30 -116.5t-76.5 -104t-123 -74.5t-161.5 -28 q-131 0 -236.5 63t-164 172t-58.5 242zM261 602h386q0 118 -52.5 183t-128.5 65q-89 0 -141.5 -70.5t-63.5 -177.5zM277 1203q0 24 11.5 43t31.5 29t44 10q53 0 120 -82l85 -115q57 -81 50 -90q-7 -8 -69.5 17.5t-122.5 55.5l-59 30q-21 11 -32 18.5t-27 21t-24 29t-8 33.5z " />
<glyph unicode="&#xe9;" horiz-adv-x="929" d="M17 458q0 72 19.5 142t59 131.5t94 108t129.5 73.5t161 27q63 0 120 -15t109 -48.5t89.5 -82.5t60 -122t22.5 -163h-624v-41q1 -52 13 -101.5t37 -96t59 -81.5t84 -56t109 -21q94 0 184 61t124 131q-2 -59 -30.5 -116.5t-77.5 -104t-123 -74.5t-160 -28q-131 0 -236.5 63 t-164 172t-58.5 242zM261 602h386q0 60 -15 108t-40.5 78t-58.5 46t-71 16q-88 0 -140.5 -71t-60.5 -177zM291 998q-2 3 4.5 16t19 31t28 39.5t31.5 42.5t29 38t22 27l8 11q58 82 115 82q36 0 60.5 -23t24.5 -59q0 -18 -7.5 -34t-22 -28.5t-27.5 -21t-32 -18.5l-134 -65 q-109 -49 -119 -38z" />
<glyph unicode="&#xea;" horiz-adv-x="929" d="M17 458q0 72 19.5 142t59 131.5t94 108t129.5 73.5t161 27q63 0 120 -15t109 -48.5t89.5 -82.5t60 -122t22.5 -163h-624v-41q1 -52 13 -101.5t37 -96t59 -81.5t84 -56t109 -21q94 0 184 61t124 131q-1 -39 -14 -78.5t-36.5 -75t-58.5 -66.5t-77.5 -54t-96 -36t-112.5 -13 q-129 0 -233.5 63t-163 172t-58.5 242zM182 998q-6 7 61 78.5t139 140t80 68.5t81 -68.5t139.5 -140t60.5 -78.5q-3 -4 -20.5 0.5t-42.5 14.5t-54.5 23t-58.5 27t-52.5 25.5t-38.5 18.5l-14 8l-151 -74q-120 -54 -129 -43zM261 602h386q0 118 -54 183t-131 65 q-88 0 -140.5 -71t-60.5 -177z" />
<glyph unicode="&#xeb;" horiz-adv-x="929" d="M17 458q0 72 19.5 142t59 131.5t94 108t129.5 73.5t161 27q63 0 120 -15t109 -48.5t89.5 -82.5t60 -122t22.5 -163h-624v-41q1 -52 13 -101.5t37 -96t59 -81.5t84 -56t109 -21q94 0 184 61t124 131q-1 -39 -14 -78.5t-36.5 -75t-58.5 -66.5t-77.5 -54t-96 -36t-112.5 -13 q-129 0 -233.5 63t-163 172t-58.5 242zM193 1139q0 47 33.5 80.5t82.5 33.5q46 0 78.5 -33.5t32.5 -80.5q0 -49 -34 -83t-82 -34q-45 0 -78 34t-33 83zM261 602h386q0 118 -54 183t-131 65q-88 0 -140.5 -71t-60.5 -177zM499 1139q0 47 33.5 80.5t80.5 33.5q33 0 59.5 -15.5 t42 -41.5t15.5 -57q0 -49 -34 -83t-83 -34q-47 0 -80.5 34t-33.5 83z" />
<glyph unicode="&#xec;" horiz-adv-x="465" d="M28 1203q0 36 24.5 59t61.5 23q61 0 116 -82l93 -124q51 -73 47 -81q-6 -5 -34 3.5t-64.5 24.5t-72.5 33t-60 30l-25 12q-2 1 -5 3q-18 12 -28 19t-24.5 20t-21.5 28t-7 32zM32 889l300 51v-857q0 -34 12 -51t39 -32h-334q17 10 27 18.5t17 24.5t7 40v727q0 23 -6 38.5 t-17.5 23t-21 11t-23.5 6.5z" />
<glyph unicode="&#xed;" horiz-adv-x="465" d="M32 889l300 51v-857q0 -34 12 -51t39 -32h-334q17 10 27 18.5t17 24.5t7 40v727q0 23 -6 38.5t-17.5 23t-21 11t-23.5 6.5zM45 998q-3 3 3 16t18 31t27 39.5t30 42.5t28 38t21 27l8 11q67 82 119 82q38 0 63 -23t25 -59q0 -18 -7.5 -33.5t-24 -29t-26.5 -20.5t-30 -19 l-137 -65q-107 -48 -117 -38z" />
<glyph unicode="&#xee;" horiz-adv-x="465" d="M-67 998q-7 10 132 148.5t151 138.5q8 0 81 -68.5t140 -140t60 -78.5q-5 -5 -35.5 5t-71 28t-80 37t-67.5 33l-27 14l-151 -73q-122 -55 -132 -44zM30 889l300 51v-857q0 -34 13.5 -51t41.5 -32h-336q27 15 39 32t12 51v727q0 23 -6 38.5t-18.5 23.5t-21.5 11t-24 6z" />
<glyph unicode="&#xef;" horiz-adv-x="465" d="M-57 1139q0 47 33 80.5t79 33.5q31 0 57.5 -15.5t42.5 -41.5t16 -57q0 -49 -34 -83t-82 -34q-49 0 -80.5 33.5t-31.5 83.5zM32 889l300 51v-857q0 -34 12.5 -51t38.5 -32h-334q27 15 39 32t12 51v727q0 18 -4.5 32t-10.5 21.5t-16 13.5t-18 8t-19 4zM252 1139 q0 48 31.5 81t80.5 33q46 0 79 -33.5t33 -80.5q0 -49 -33 -83t-79 -34q-49 0 -80.5 33.5t-31.5 83.5z" />
<glyph unicode="&#xf0;" horiz-adv-x="992" d="M17 454q1 75 20 145.5t58 132.5t93.5 108t129.5 73t162 27q21 0 42 -4t37.5 -10.5t31.5 -14t25.5 -15t18.5 -13.5t12 -10l4 -4q-34 136 -105 240l-231 -63v96q11 3 28 8t54 14.5t61.5 16.5t23.5 7q-101 97 -227 97q-41 0 -69.5 -4t-41 -8t-46.5 -16q20 39 96.5 73 t167.5 32q173 0 312 -124l195 54v-97l-122 -33q59 -74 100.5 -167.5t63 -200.5t21.5 -220q0 -293 -121 -443t-335 -150q-97 0 -177 29.5t-131.5 77.5t-86.5 111t-49.5 127t-14.5 128zM250 452q5 -173 69.5 -276.5t166.5 -100.5q107 4 162.5 109.5t49.5 287.5 q-3 105 -29 189.5t-80 137.5t-127 51q-72 -2 -121.5 -56.5t-71.5 -142.5t-19 -199z" />
<glyph unicode="&#xf1;" horiz-adv-x="1039" d="M37 897l295 43v-132q24 23 51.5 43.5t65 42t83 34t91.5 12.5q80 0 145.5 -32.5t106.5 -99t41 -155.5v-570q0 -34 13 -51t41 -32h-331q29 14 41 31t12 52v499q0 32 -3 58t-14 56.5t-30.5 51t-54.5 34.5t-83 14q-51 0 -99.5 -27t-75.5 -61v-625q0 -34 12 -51t39 -32h-332 q27 15 39 32t12 51v727q0 43 -16 60.5t-49 26.5zM203 1073q2 13 22.5 36.5t50.5 47.5t71.5 42t80.5 18q30 0 114.5 -30.5t117.5 -30.5q15 0 29 2.5t24.5 6.5t20 9t16 10t11.5 9.5t8 6.5l2 3l39 -51q-2 -3 -6 -7t-16.5 -17t-26 -24.5t-33.5 -25.5t-39 -24t-43 -17t-46 -7 q-45 0 -94 18t-86 35.5t-54 17.5q-14 0 -28.5 -4t-26 -10t-22 -13t-18.5 -14.5t-13.5 -13.5t-8.5 -10l-3 -4z" />
<glyph unicode="&#xf2;" horiz-adv-x="992" d="M17 454q1 75 20 145.5t58 132.5t93.5 108t129.5 73t162 27q89 -1 165 -27t129.5 -71.5t91 -106t55.5 -130t17 -143.5q-1 -77 -22 -149t-61.5 -132t-96 -105t-128 -70t-154.5 -25q-97 0 -177 29.5t-131.5 77.5t-86.5 111t-49.5 127t-14.5 128zM250 452q5 -173 69.5 -276.5 t166.5 -100.5q107 4 162.5 109.5t49.5 287.5q-3 105 -29 189.5t-80 137.5t-127 51q-72 -2 -121.5 -56.5t-71.5 -142.5t-19 -199zM285 1203q0 36 24.5 59t60.5 23q32 0 64 -23.5t56 -58.5l88 -119q55 -78 49 -86q-8 -8 -71.5 17.5t-122.5 55.5l-60 30q-20 12 -30 19 t-26.5 20.5t-24 29t-7.5 33.5z" />
<glyph unicode="&#xf3;" horiz-adv-x="992" d="M17 454q1 75 20.5 145.5t59 132.5t93.5 108t129 73t161 27q91 -1 167 -27t129.5 -71.5t90.5 -106t54.5 -130t16.5 -143.5q-1 -97 -34 -184t-91.5 -153t-145 -105t-187.5 -39q-97 0 -177.5 29.5t-132.5 77.5t-87.5 111t-50.5 127t-15 128zM253 452q6 -173 70.5 -276.5 t166.5 -100.5q107 4 162.5 109.5t49.5 287.5q-3 105 -29 189.5t-80 137.5t-127 51q-56 -2 -98 -33.5t-67.5 -86t-37.5 -125t-10 -153.5zM326 998q-2 3 4.5 16t18.5 31t27.5 39.5t31 42.5t28.5 38t21 27l9 11q55 82 116 82q19 0 35 -6t27 -16.5t17.5 -26t6.5 -33.5t-7 -33.5 t-22.5 -29t-26.5 -20.5t-30 -19l-133 -64q-111 -50 -123 -39z" />
<glyph unicode="&#xf4;" horiz-adv-x="992" d="M17 454q1 75 20 145.5t58 132.5t93.5 108t129.5 73t162 27q89 -1 165 -27t129.5 -71.5t91 -106t55.5 -130t17 -143.5q-1 -77 -22 -149t-61.5 -132t-96 -105t-128 -70t-154.5 -25q-97 0 -177 29.5t-131.5 77.5t-86.5 111t-49.5 127t-14.5 128zM193 998q-3 4 23 35t67 72.5 t82.5 82.5t73.5 69t37 28q9 0 81 -68.5t139 -140t60 -78.5q-7 -8 -77 21t-137 62l-66 34l-148 -72q-124 -56 -135 -45zM250 452q5 -173 69.5 -276.5t166.5 -100.5q107 4 162.5 109.5t49.5 287.5q-3 105 -29 189.5t-80 137.5t-127 51q-72 -2 -121.5 -56.5t-71.5 -142.5 t-19 -199z" />
<glyph unicode="&#xf5;" horiz-adv-x="992" d="M17 454q1 75 20 145.5t58 132.5t93.5 108t129.5 73t162 27q89 -1 165 -27t129.5 -71.5t91 -106t55.5 -130t17 -143.5q-1 -77 -22 -149t-61.5 -132t-96 -105t-128 -70t-154.5 -25q-97 0 -177 29.5t-131.5 77.5t-86.5 111t-49.5 127t-14.5 128zM171 1073q3 13 23.5 36.5 t50.5 47.5t72 42t80 18q30 0 114.5 -30.5t117.5 -30.5q32 0 59.5 11.5t39.5 23.5l11 12l41 -51q-2 -3 -5.5 -7t-16 -17t-26 -24.5t-33.5 -25.5t-39.5 -24t-44 -17t-47.5 -7q-44 0 -92.5 18t-87 35.5t-56.5 17.5t-36.5 -7t-32.5 -17t-25 -20.5t-16 -17.5l-6 -7zM250 452 q5 -173 69.5 -276.5t166.5 -100.5q107 4 162.5 109.5t49.5 287.5q-3 105 -29 189.5t-80 137.5t-127 51q-72 -2 -121.5 -56.5t-71.5 -142.5t-19 -199z" />
<glyph unicode="&#xf6;" horiz-adv-x="992" d="M17 454q1 75 20 145.5t58 132.5t93.5 108t129.5 73t162 27q89 -1 165 -27t129.5 -71.5t91 -106t55.5 -130t17 -143.5q-1 -77 -22 -149t-61.5 -132t-96 -105t-128 -70t-154.5 -25q-97 0 -177 29.5t-131.5 77.5t-86.5 111t-49.5 127t-14.5 128zM204 1139q0 47 34.5 80.5 t80 33.5t79 -33.5t33.5 -80.5q0 -33 -15.5 -59.5t-42 -42t-58.5 -15.5q-30 0 -55.5 15.5t-40.5 42.5t-15 59zM250 452q5 -173 69.5 -276.5t166.5 -100.5q107 4 162.5 109.5t49.5 287.5q-3 105 -29 189.5t-80 137.5t-127 51q-72 -2 -121.5 -56.5t-71.5 -142.5t-19 -199z M514 1139q0 23 8 44t23 36.5t36 24.5t46 9q46 0 79 -33.5t33 -80.5q0 -49 -33 -83t-79 -34q-50 0 -81.5 33.5t-31.5 83.5z" />
<glyph unicode="&#xf7;" horiz-adv-x="1017" d="M67 574v156h837v-156h-837zM373 317q0 46 30 77.5t77 31.5t78 -31.5t31 -77.5q0 -48 -31 -80.5t-78 -32.5t-77 32.5t-30 80.5zM373 989q0 46 30 78t77 32t78 -32t31 -78t-31 -78.5t-78 -32.5t-77 32.5t-30 78.5z" />
<glyph unicode="&#xf8;" horiz-adv-x="992" d="M8 -24q63 73 122 148q-59 66 -86 153.5t-27 176.5q0 75 19.5 145.5t58 132.5t93 108t130 73t162.5 27q139 0 242 -65q8 11 17 24t15 21.5t11.5 16t7.5 11.5h151q-78 -92 -114 -138q64 -67 96 -157.5t32 -190.5q0 -64 -15 -125t-43 -114t-69 -98t-91.5 -77t-113 -49.5 t-130.5 -17.5q-147 0 -260 74q-17 -23 -36 -51l-19 -28h-153zM250 452q3 -87 27 -152q123 158 350 456q-67 96 -161 94q-72 -1 -122.5 -55t-73 -142t-20.5 -201zM315 177q72 -105 167 -102q109 4 166 108t54 285q0 70 -38 169q-194 -252 -349 -460z" />
<glyph unicode="&#xf9;" horiz-adv-x="1039" d="M15 889l302 51v-584q0 -117 52.5 -174.5t131.5 -57.5q56 0 97 22t83 62v602q0 43 -18.5 58t-50.5 21l296 51v-751q0 -61 16 -91t63 -39l-222 -78q-41 19 -60 47.5t-19 83.5q-26 -26 -51.5 -46t-61 -41t-79 -32.5t-91.5 -11.5q-44 0 -86 10.5t-85 37.5t-75 68.5t-52.5 109 t-20.5 153.5v450q0 23 -5.5 38.5t-17 23t-21.5 11t-25 6.5zM297 1203q0 36 24 59t60 23q64 0 120 -82l87 -115q58 -81 51 -90q-7 -8 -71 17.5t-123 55.5l-60 30q-21 12 -31 19t-26.5 20.5t-23.5 29t-7 33.5z" />
<glyph unicode="&#xfa;" horiz-adv-x="1039" d="M15 889l302 51v-584q0 -117 53.5 -174.5t134.5 -57.5q53 0 93 21.5t86 62.5v602q0 23 -6 38.5t-17.5 23t-21 11t-24.5 6.5l293 51v-751q0 -60 18 -90.5t65 -39.5l-226 -78q-40 19 -57.5 47t-17.5 84q-31 -29 -54 -47t-60 -40t-80 -33t-93 -11q-43 0 -84.5 10.5t-85 37.5 t-75.5 68t-53 109t-21 154v450q0 43 -17.5 58.5t-51.5 20.5zM356 998q-3 3 3.5 16t18.5 31t27.5 39.5t31 42.5t29 38t21.5 27l8 11q56 82 117 82q36 0 61 -23t25 -59q0 -18 -7.5 -33.5t-23 -29t-26 -20.5t-29.5 -19l-134 -64q-111 -50 -122 -39z" />
<glyph unicode="&#xfb;" horiz-adv-x="1039" d="M15 889l302 51v-584q0 -117 53.5 -174.5t134.5 -57.5q53 0 93 21.5t86 62.5v602q0 23 -6 38.5t-17.5 23t-21 11t-24.5 6.5l293 51v-751q0 -60 18 -90.5t65 -39.5l-226 -78q-40 19 -57.5 47t-17.5 84q-31 -29 -54 -47t-60 -40t-80 -33t-93 -11q-43 0 -84.5 10.5t-85 37.5 t-75.5 68t-53 109t-21 154v450q0 43 -17.5 58.5t-51.5 20.5zM214 998q-7 10 132.5 148.5t152.5 138.5q8 0 80 -68.5t139 -140t61 -78.5q-7 -8 -77 21t-136 62l-67 34l-145 -71q-126 -56 -140 -46z" />
<glyph unicode="&#xfc;" horiz-adv-x="1039" d="M17 889l302 51v-584q0 -118 52.5 -175t133.5 -57q53 0 94.5 22t84.5 62v602q0 23 -5.5 38.5t-17 23t-21.5 11t-25 6.5l295 51v-751q0 -20 1.5 -35.5t4.5 -29.5t9 -24t14.5 -18.5t21 -14t28.5 -8.5l-222 -78q-41 19 -59 47t-20 84q-29 -27 -53 -46.5t-60 -41t-79.5 -32.5 t-92.5 -11q-43 0 -84.5 10.5t-85 37.5t-75.5 68t-53 109t-21 154v450q0 18 -4 32t-10 21.5t-16.5 13.5t-17.5 8t-19 4zM232 1139q0 47 33 80.5t81 33.5t82 -33.5t34 -80.5q0 -49 -35 -83t-81 -34q-49 0 -81.5 33.5t-32.5 83.5zM540 1139q0 23 9.5 44t24.5 36.5t35.5 24.5 t43.5 9q32 0 58 -15.5t41 -41.5t15 -57q0 -50 -32.5 -83.5t-81.5 -33.5q-30 0 -56 15.5t-41.5 42.5t-15.5 59z" />
<glyph unicode="&#xfd;" horiz-adv-x="815" d="M-105 910h402q-19 -7 -31 -15t-21 -20.5t-8 -31t11 -42.5l208 -514q137 309 216 517q18 46 -3 72.5t-61 33.5h291q-40 -17 -65 -41t-42 -65q-70 -162 -187 -422t-213 -477.5t-158 -370.5h-208q29 13 51.5 29t40 39.5t26 37.5t25.5 45q37 69 171 343l-342 780 q-22 50 -39.5 66t-56.5 33q-4 2 -7 3zM366 998q-3 3 3 16t18 31t27 39.5t30.5 42.5t28.5 38t22 27l8 11q24 35 54.5 58.5t61.5 23.5q36 0 61.5 -23t25.5 -59q0 -18 -7.5 -33.5t-23 -29t-26 -20.5t-30.5 -19l-134 -65q-109 -49 -119 -38z" />
<glyph unicode="&#xfe;" horiz-adv-x="1039" d="M32 1302l294 56v-527q26 26 59 48.5t88 41.5t113 19t114.5 -19t107.5 -58t90 -94t62 -133t23 -168q0 -69 -19.5 -138.5t-58.5 -132t-93 -111t-128 -77t-157 -28.5q-119 0 -201 43v-397q0 -58 53 -79h-334q51 21 51 79v1592q0 41 -17.5 58.5t-46.5 24.5zM326 152 q62 -73 150 -73q125 0 194 104t69 275q0 78 -16 140.5t-41 101t-57.5 64.5t-64 36t-63.5 10q-99 0 -171 -78v-580z" />
<glyph unicode="&#xff;" horiz-adv-x="811" d="M-107 910h402q-19 -7 -31 -15t-21 -20.5t-8 -31t11 -42.5l208 -514q138 309 216 517q18 46 -3 72.5t-61 33.5h291q-40 -17 -65 -41t-42 -65q-70 -162 -187 -422t-213 -477.5t-158 -370.5h-208q29 13 51.5 29t40.5 39.5t26 37.5t25 45q37 69 171 343l-342 780 q-27 62 -58 81q-10 6 -45 21zM133 1139q0 47 34 80.5t83 33.5q45 0 78.5 -33.5t33.5 -80.5q0 -33 -15.5 -59.5t-42 -42t-58.5 -15.5q-30 0 -56 15.5t-41.5 42.5t-15.5 59zM441 1139q0 47 34.5 80.5t83.5 33.5q45 0 78 -33.5t33 -80.5q0 -49 -33 -83t-78 -34q-49 0 -83.5 34 t-34.5 83z" />
<glyph unicode="&#x102;" horiz-adv-x="1106" d="M-112 0q40 28 59 47.5t34 48.5q16 33 154.5 354t269.5 625l130 304q523 -1208 558 -1283q16 -34 34.5 -53t63.5 -43h-420q37 20 47.5 43t-0.5 53q-3 9 -18 45t-44.5 107.5t-49.5 121.5h-482q-103 -235 -110 -272q-13 -35 -3.5 -57.5t48.5 -40.5h-271zM263 472h397 l-200 481q-134 -333 -197 -481zM290 1755l1 16h33q1 -6 3.5 -16.5t16 -36.5t34 -46t62.5 -36.5t97 -16.5q41 0 75 8t55.5 21.5t37.5 30t24 32.5t13 29.5t6 22.5l1 8h39v-16.5t-3.5 -41.5t-11.5 -59t-26.5 -62t-44 -59t-68.5 -41.5t-97 -16.5t-97 16t-68 42.5t-43 58t-25 63 t-10.5 57.5t-3.5 43z" />
<glyph unicode="&#x103;" horiz-adv-x="872" d="M4 227q0 61 32.5 119t104.5 102q42 26 125.5 51.5t157.5 48.5t101 48q13 9 16.5 36t0.5 49q0 70 -39.5 117.5t-115.5 47.5q-192 0 -282 -258v267q69 39 147.5 62t186.5 23q28 0 54 -2.5t60.5 -10t63 -20t57 -35t48.5 -52.5t32.5 -74.5t12.5 -98.5v-499q0 -23 0.5 -30.5 t3 -21.5t8.5 -20t17.5 -13t29.5 -12l-203 -70q-25 15 -38 27t-23.5 38t-13.5 66q-34 -34 -75 -61.5t-101 -48.5t-120 -21q-51 0 -93 16.5t-70 42.5t-48 59t-28.5 65.5t-8.5 62.5zM174 1300l1 17h35q1 -3 2 -9t7 -23t15 -32.5t27 -34t40.5 -32.5t58 -23t77.5 -9q44 0 80 9 t59 23.5t40 32t25.5 34.5t13.5 31.5t6 23.5l1 9h42q-2 0 0 -10.5t-1 -29.5t-5.5 -42t-12 -49.5t-21 -53t-32.5 -50t-47 -42t-64.5 -29.5t-83.5 -11q-58 0 -103.5 17.5t-72.5 45.5t-46 62t-26.5 67.5t-11 61.5t-3.5 46zM224 263q0 -71 39 -109t101 -38q100 0 178 75v308 q-32 -17 -90 -36t-88 -32q-67 -28 -103.5 -67.5t-36.5 -100.5z" />
<glyph unicode="&#x104;" horiz-adv-x="1106" d="M-112 0q40 28 59 47.5t34 48.5q16 33 154.5 354t269.5 625l130 304q523 -1208 558 -1283q16 -34 34.5 -53t63.5 -43h-420q37 20 47.5 43t-0.5 53q-3 9 -18 45t-44.5 107.5t-49.5 121.5h-482q-103 -235 -110 -272q-13 -35 -3.5 -57.5t48.5 -40.5h-271zM263 472h397 l-200 481q-134 -333 -197 -481zM842 -165q0 95 73 148t201 53l6 -17q-6 -2 -17 -6.5t-39.5 -20t-50 -34t-39 -49t-17.5 -65.5q0 -28 22.5 -48t58.5 -20q16 0 29 2.5t42 16.5t69 42q0 -69 -41.5 -115t-114.5 -46q-80 0 -131 45t-51 114z" />
<glyph unicode="&#x105;" d="M4 227q0 61 32.5 119t104.5 102q42 26 125.5 51.5t157.5 48.5t101 48q13 9 16.5 36t0.5 49q0 70 -39.5 117.5t-115.5 47.5q-192 0 -282 -258v267q69 39 147.5 62t186.5 23q28 0 54 -2.5t60.5 -10t63 -20t57 -35t48.5 -52.5t32.5 -74.5t12.5 -98.5v-499q0 -23 0.5 -30.5 t3 -21.5t8.5 -20t17.5 -13t29.5 -12l-203 -70q-25 15 -38 27t-23.5 38t-13.5 66q-34 -34 -75 -61.5t-101 -48.5t-120 -21q-51 0 -93 16.5t-70 42.5t-48 59t-28.5 65.5t-8.5 62.5zM224 263q0 -71 39 -109t101 -38q100 0 178 75v308q-32 -17 -90 -36t-88 -32 q-67 -28 -103.5 -67.5t-36.5 -100.5zM488 -201q0 96 73 148.5t202 52.5l6 -15q-7 -3 -18 -7t-39 -20t-49.5 -34.5t-39 -49.5t-17.5 -65q0 -19 9.5 -34.5t28.5 -24.5t42 -9q17 0 29.5 2.5t41.5 16.5t69 41q0 -69 -42 -115t-114 -46q-80 0 -131 45.5t-51 113.5z" />
<glyph unicode="&#x106;" horiz-adv-x="1326" d="M19 664q0 105 30 204.5t93 188.5t151 156t212 106t270 39q241 0 461 -101q2 -20 4 -52.5t6.5 -100.5t7 -111.5t1.5 -41.5q-25 57 -58 103t-66.5 77t-72 54t-71.5 35.5t-68.5 20t-60 10t-48.5 2.5q-123 0 -223.5 -43.5t-166.5 -119.5t-101.5 -178.5t-35.5 -221.5 q0 -59 8.5 -118t28 -119t48.5 -113t73 -99.5t98 -80t127 -53t158 -19.5q34 0 69.5 5t88.5 24t100.5 49.5t98 88.5t87.5 135q2 3 -2.5 -67.5t-9.5 -143.5l-5 -72q-223 -126 -500 -126q-116 0 -224.5 30.5t-200.5 90t-160.5 141t-107.5 190.5t-39 231zM683 1396q-6 8 29 60.5 t73 100.5l39 49q59 85 116 85q34 0 59 -26t25 -59q0 -8 -1.5 -15.5t-3.5 -13.5t-6.5 -12.5t-8 -11t-10 -11t-10 -9.5t-12 -8.5t-11 -7.5t-11.5 -8t-10 -7l-145 -69q-103 -46 -112 -37z" />
<glyph unicode="&#x107;" horiz-adv-x="839" d="M17 462q0 61 17 124.5t55 127.5t92.5 114t137 81t180.5 31q54 0 120.5 -15.5t107.5 -30.5l40 -16v-304q-39 121 -106 194.5t-156 73.5q-47 0 -87.5 -19.5t-69.5 -54t-50.5 -79.5t-32 -97t-10.5 -106q0 -77 18.5 -144t54 -118.5t93 -81.5t129.5 -30q85 0 151.5 35.5 t106.5 84.5q-1 -24 -13.5 -55t-40 -65.5t-65.5 -63.5t-96 -48t-125 -19q-90 0 -165 27t-127 73t-88.5 108t-53.5 131t-17 142zM358 998q-3 3 3.5 16t18 31t27 39.5t31 42.5t28.5 38t21 27l8 11q24 35 54.5 58.5t62.5 23.5q36 0 61 -23t25 -59q0 -18 -7.5 -33.5t-23 -29 t-26 -20.5t-29.5 -19l-135 -65q-109 -49 -119 -38z" />
<glyph unicode="&#x10c;" horiz-adv-x="1326" d="M19 664q0 105 30 204.5t93 188.5t151 156t212 106t270 39q241 0 461 -101q2 -20 4 -52.5t6.5 -100.5t7 -111.5t1.5 -41.5q-25 57 -58 103t-66.5 77t-72 54t-71.5 35.5t-68.5 20t-60 10t-48.5 2.5q-123 0 -223.5 -43.5t-166.5 -119.5t-101.5 -178.5t-35.5 -221.5 q0 -59 8.5 -118t28 -119t48.5 -113t73 -99.5t98 -80t127 -53t158 -19.5q34 0 69.5 5t88.5 24t100.5 49.5t98 88.5t87.5 135q2 3 -2.5 -67.5t-9.5 -143.5l-5 -72q-223 -126 -500 -126q-116 0 -224.5 30.5t-200.5 90t-160.5 141t-107.5 190.5t-39 231zM480 1705q4 4 34.5 -6.5 t71 -29t80 -37.5t66.5 -33l27 -14l159 77q112 52 122 43q6 -8 -60.5 -81.5t-139 -144t-81.5 -70.5q-7 0 -79.5 70.5t-139 144t-60.5 81.5z" />
<glyph unicode="&#x10d;" horiz-adv-x="839" d="M17 462q0 61 17 124.5t55 127.5t92.5 114t137 81t180.5 31q54 0 120.5 -15.5t107.5 -30.5l40 -16v-304q-39 121 -106 194.5t-156 73.5q-47 0 -87.5 -19.5t-69.5 -54t-50.5 -79.5t-32 -97t-10.5 -106q0 -77 18.5 -144t54 -118.5t93 -81.5t129.5 -30q85 0 151.5 35.5 t106.5 84.5q-1 -24 -13.5 -55t-40 -65.5t-65.5 -63.5t-96 -48t-125 -19q-90 0 -165 27t-127 73t-88.5 108t-53.5 131t-17 142zM150 1287q10 9 81 -20t138 -62l66 -33l148 72q122 55 132 43q6 -6 -61 -77.5t-139 -140.5t-80 -69t-81 69t-141 140.5t-63 77.5z" />
<glyph unicode="&#x10e;" horiz-adv-x="1401" d="M67 0q51 30 51 88v1160q0 63 -51 89h522q134 0 247 -26t191 -68.5t139.5 -100.5t98 -117.5t60.5 -124t32.5 -116t8.5 -96.5q0 -104 -31 -202.5t-96 -187t-157.5 -154.5t-223.5 -105t-286 -39h-505zM272 1698q4 5 34 -6t70.5 -29t80 -37t66.5 -33l27 -14l158 77 q114 51 123 42q7 -8 -60 -81.5t-139.5 -143t-81.5 -69.5q-8 0 -79.5 69.5t-138 143t-60.5 81.5zM368 102h157q82 0 152 13t124.5 38t99 58.5t76 76t54.5 89t36.5 99.5t19.5 105t6 107q0 53 -8.5 105.5t-28 107t-49 103.5t-74 92t-99 74.5t-128 49.5t-158.5 18 q-151 0 -180 -3v-1133z" />
<glyph unicode="&#x10f;" horiz-adv-x="1035" d="M17 466q0 89 35 174.5t94.5 152t147.5 107t188 40.5q40 0 73 -7.5t56.5 -19t48.5 -30.5v348q0 20 -5.5 34.5t-19.5 23.5t-22 12t-25 8l305 49v-1214q0 -21 5 -36t17.5 -24.5t20.5 -13t25 -10.5l-295 -79l-2 102q-46 -41 -114 -71.5t-143 -30.5q-117 0 -206.5 63.5 t-136.5 173.5t-47 248zM257 482q0 -73 13.5 -133t37 -99t51 -67.5t58.5 -43.5t57 -22t49 -7q64 0 137 51v608q-1 2 -5 6q-20 22 -32 33.5t-38 22.5t-58 11q-84 0 -146.5 -51t-93 -131.5t-30.5 -177.5zM985 1292q0 48 29 74t69 26q52 0 83 -42.5t31 -111.5q0 -58 -28 -128 t-69 -118.5t-76 -53.5q-10 -3 -14 4q-2 6 9 10l5 1q10 1 26 22t32.5 53.5t28 79t11.5 91.5q-33 -6 -39 -6q-27 0 -49.5 14t-35.5 37t-13 48z" />
<glyph unicode="&#x110;" horiz-adv-x="1424" d="M-94 674v127h610v-127h-610zM67 0q51 30 51 88v1160q0 63 -51 89h522q134 0 247 -26t191 -68.5t139.5 -100.5t98 -117.5t60.5 -124t32.5 -116t8.5 -96.5q0 -104 -31 -202.5t-96 -187t-157.5 -154.5t-223.5 -105t-286 -39h-505zM368 102h157q82 0 152 13t124.5 38t99 58.5 t76 76t54.5 89t36.5 99.5t19.5 105t6 107q0 53 -8.5 105.5t-28 107t-49 103.5t-74 92t-99 74.5t-128 49.5t-158.5 18q-151 0 -180 -3v-1133z" />
<glyph unicode="&#x111;" horiz-adv-x="1028" d="M17 466q0 89 35 174.5t94.5 152t147.5 107t188 40.5q40 0 73 -7.5t56.5 -19t48.5 -30.5v348q0 20 -5.5 34.5t-19.5 23.5t-22 12t-25 8l305 49v-1214q0 -21 5 -36t17.5 -24.5t20.5 -13t25 -10.5l-295 -79l-2 102q-46 -41 -114 -71.5t-143 -30.5q-117 0 -206.5 63.5 t-136.5 173.5t-47 248zM257 482q0 -73 13.5 -133t37 -99t51 -67.5t58.5 -43.5t57 -22t49 -7q64 0 137 51v608q-1 2 -5 6q-20 22 -32 33.5t-38 22.5t-58 11q-84 0 -146.5 -51t-93 -131.5t-30.5 -177.5zM439 1046v106h518v-106h-518z" />
<glyph unicode="&#x118;" horiz-adv-x="945" d="M59 0q29 17 44 36.5t15 51.5v1160q0 60 -59 89h791l5 -173q-18 25 -39.5 40t-48.5 22t-65 9q-17 1 -57.5 1.5t-86.5 1t-89.5 0.5h-72.5h-28v-452h296q20 0 42 18.5t29 37.5v-209q-7 21 -28.5 39t-42.5 18h-296v-578q32 -4 110 -8t145 -2q10 0 28 1q33 1 48.5 1.5t41.5 2 t39 4t33.5 7t31.5 11t27 15.5t27 20.5t23 27t24 35.5l-42 -227h-845zM517 -165q0 95 73 148t202 53l6 -17q-7 -2 -18 -6.5t-39 -20t-49 -34t-38.5 -49t-17.5 -65.5q0 -28 21.5 -48t57.5 -20q17 0 30 2.5t42 16.5t68 42q0 -69 -41.5 -115t-113.5 -46q-81 0 -132 45t-51 114z " />
<glyph unicode="&#x119;" horiz-adv-x="929" d="M17 458q0 72 19.5 142t59 131.5t94 108t129.5 73.5t161 27q63 0 120 -15t109 -48.5t89.5 -82.5t60 -122t22.5 -163h-624v-41q1 -52 13 -101.5t37 -96t60 -81.5t85.5 -56t110.5 -21q63 0 127.5 30.5t110 74t66.5 87.5q-2 -59 -30 -116.5t-76.5 -104t-123 -74.5t-161.5 -28 q-131 0 -236.5 63t-164 172t-58.5 242zM261 602h386q0 118 -52.5 183t-128.5 65q-89 0 -141.5 -70.5t-63.5 -177.5zM437 -141q0 47 19 84.5t54 63t86 39t115 13.5l7 -16q-7 -2 -18 -6.5t-39 -20t-49.5 -34t-39 -49t-17.5 -65.5q0 -28 22.5 -48.5t58.5 -20.5q16 0 29 3 t41.5 17t68.5 42q0 -69 -41.5 -115t-114.5 -46q-80 0 -131 45t-51 114z" />
<glyph unicode="&#x11a;" horiz-adv-x="945" d="M59 0q29 17 44 36.5t15 51.5v1160q0 60 -59 89h791l5 -173q-18 25 -39.5 40t-48.5 22t-65 9q-17 1 -57.5 1.5t-86.5 1t-89.5 0.5h-72.5h-28v-452h296q20 0 42 18.5t29 37.5v-209q-7 21 -28.5 39t-42.5 18h-296v-578q32 -4 110 -8t145 -2q10 0 28 1q33 1 48.5 1.5t41.5 2 t39 4t33.5 7t31.5 11t27 15.5t27 20.5t23 27t24 35.5l-42 -227h-845zM199 1705q4 4 34.5 -6.5t70.5 -29t80 -37.5t67 -33l27 -14l158 77q114 52 123 43q5 -6 -35.5 -53.5t-93 -101t-99.5 -97.5t-53 -44q-8 0 -80 70.5t-138.5 144t-60.5 81.5z" />
<glyph unicode="&#x11b;" horiz-adv-x="929" d="M17 458q0 72 19.5 142t59 131.5t94 108t129.5 73.5t161 27q63 0 120 -15t109 -48.5t89.5 -82.5t60 -122t22.5 -163h-624v-41q1 -52 13 -101.5t37 -96t60 -81.5t85.5 -56t110.5 -21q63 0 127.5 30.5t110 74t66.5 87.5q-2 -59 -30 -116.5t-76.5 -104t-123 -74.5t-161.5 -28 q-131 0 -236.5 63t-164 172t-58.5 242zM197 1287q10 9 81 -20t138 -62l66 -33l150 72q121 55 131 43q4 -4 -36.5 -50t-93 -98.5t-99 -95.5t-52.5 -43q-8 0 -81 69t-141 140.5t-63 77.5zM261 602h386q0 118 -52.5 183t-128.5 65q-89 0 -141.5 -70.5t-63.5 -177.5z" />
<glyph unicode="&#x131;" horiz-adv-x="467" d="M34 889l300 51v-857q0 -34 12 -51t39 -32h-334q26 15 38.5 32t12.5 51v727q0 23 -6 38.5t-17.5 23t-21 11t-23.5 6.5z" />
<glyph unicode="&#x139;" horiz-adv-x="919" d="M63 0q55 28 55 88v1160q0 64 -55 89h356q-51 -24 -51 -89v-1136q9 0 50 -3.5t84.5 -5.5t83.5 -1q48 1 75 2t62 3.5t53.5 6t42 10t37 15t29 21t27 29t22.5 38.5l-43 -227h-828zM236 1388q-6 8 29.5 60.5t73.5 101.5l38 48q60 85 116 85q35 0 60 -26t25 -59q0 -17 -7 -32.5 t-21 -28.5t-23.5 -20.5t-26.5 -18.5q-5 -3 -7 -4l-144 -69q-102 -45 -113 -37z" />
<glyph unicode="&#x13a;" horiz-adv-x="465" d="M28 1308l304 50v-1275q0 -34 12 -51t39 -32h-334q17 10 27 18.5t17 24.5t7 40v1142q0 17 -5 30.5t-10 21t-18 14.5t-18 9t-21 8zM407 1323q0 47 29 74t69 27q53 0 83.5 -42.5t30.5 -111.5q0 -59 -28 -128.5t-69 -118.5t-76 -53q-10 -3 -13 3t9 11q2 0 4 1q14 1 36.5 34.5 t42 93t19.5 118.5q-33 -6 -39 -6q-40 0 -69 29.5t-29 68.5z" />
<glyph unicode="&#x13d;" horiz-adv-x="919" d="M-34 1705q5 4 35 -6.5t70.5 -29t80 -37.5t66.5 -33l28 -14l158 77q113 52 123 43q6 -8 -60.5 -81.5t-139.5 -144t-81 -70.5t-80 70.5t-139 144t-61 81.5zM53 0q55 29 55 88v1160q0 64 -55 89h356q-51 -24 -51 -89v-1136q9 0 50 -3.5t85 -5.5t83 -1q49 1 76 2t61.5 3.5 t53 6t42 10t37 15t29 21t27 29t22.5 38.5l-43 -227h-828z" />
<glyph unicode="&#x13e;" horiz-adv-x="504" d="M28 1308l304 50v-1275q0 -34 12 -51t39 -32h-334q17 10 27 18.5t17 24.5t7 40v1142q0 17 -5 30.5t-10 21t-18 14.5t-18 9t-21 8zM420 1327q0 47 29.5 74t69.5 27q53 0 83.5 -42.5t30.5 -111.5q0 -59 -28.5 -128.5t-69 -118.5t-75.5 -54q-11 -3 -14 4q-3 6 9 10q2 1 5 2 q9 1 25.5 22t33 53t28.5 79t12 92q-34 -6 -40 -6q-40 0 -69.5 29.5t-29.5 68.5z" />
<glyph unicode="&#x141;" horiz-adv-x="919" d="M-34 604v96l152 41v507q0 64 -55 89h356q-51 -24 -51 -89v-440l153 42v-97l-153 -42v-599q9 0 50 -3.5t84.5 -5.5t83.5 -1q48 1 75 2t62 3.5t53.5 6t42 10t37 15t29 21t27 29t22.5 38.5l-43 -227h-828q55 28 55 88v557z" />
<glyph unicode="&#x142;" horiz-adv-x="465" d="M-51 604v96l151 41v484q0 17 -5 30.5t-10 21t-18 14.5t-18 9t-21 8l304 50v-555l171 47v-97q-171 -45 -171 -47v-623q0 -34 12 -51t39 -32h-334q17 10 27 18.5t17 24.5t7 40v562z" />
<glyph unicode="&#x143;" horiz-adv-x="1281" d="M-13 1337h337l726 -865v776q0 64 -52 89h219q-52 -26 -52 -89v-1303q-943 1113 -943 1128v-985q0 -59 55 -88h-218q51 30 51 88v1051q0 59 -4 75t-31 48q-35 44 -88 75zM563 1388q-6 8 29 60.5t73 101.5l39 48q59 85 116 85q34 0 59 -26t25 -59q0 -48 -65 -91 q-4 -3 -13 -9l-6 -4l-145 -69q-103 -45 -112 -37z" />
<glyph unicode="&#x144;" horiz-adv-x="1039" d="M36 897l294 43v-132q33 32 71 58.5t99 50t121 23.5t112.5 -19t93 -54.5t64 -91t23.5 -122.5v-570q0 -34 13 -51t41 -32h-331q29 14 41 31t12 52v499q0 32 -3 58t-14 56.5t-30.5 51t-54.5 34.5t-83 14q-51 0 -99.5 -27t-75.5 -61v-625q0 -34 12 -51t39 -32h-332 q27 15 39 32t12 51v727q0 30 -9.5 48.5t-21.5 25.5t-33 13zM428 998q-2 3 5 16t19.5 31t27.5 39.5t31 42.5t29.5 38t21.5 27l8 11q59 82 116 82q36 0 60.5 -23t24.5 -59q0 -34 -24 -57t-64 -45l-135 -64q-110 -50 -120 -39z" />
<glyph unicode="&#x147;" horiz-adv-x="1308" d="M-13 1337h337l726 -865v776q0 64 -52 89h219q-52 -26 -52 -89v-1303q-943 1113 -943 1128v-985q0 -59 55 -88h-218q51 30 51 88v1051q0 59 -4 75t-31 48q-35 44 -88 75zM342 1698q7 7 76.5 -22.5t136.5 -63.5l66 -33l158 77q114 51 123 42q7 -8 -60 -81.5t-139.5 -143 t-81.5 -69.5q-8 0 -80 69.5t-138.5 143t-60.5 81.5z" />
<glyph unicode="&#x148;" horiz-adv-x="1039" d="M36 897l294 43v-132q33 32 71 58.5t99 50t121 23.5t112.5 -19t93 -54.5t64 -91t23.5 -122.5v-570q0 -34 13 -51t41 -32h-331q29 14 41 31t12 52v499q0 32 -3 58t-14 56.5t-30.5 51t-54.5 34.5t-83 14q-51 0 -99.5 -27t-75.5 -61v-625q0 -34 12 -51t39 -32h-332 q27 15 39 32t12 51v727q0 30 -9.5 48.5t-21.5 25.5t-33 13zM250 1287q9 9 80.5 -20t137.5 -62l67 -33l149 72q122 55 132 43q4 -4 -37 -50t-93 -98.5t-98.5 -95.5t-52.5 -43q-14 0 -153 139t-132 148z" />
<glyph unicode="&#x150;" horiz-adv-x="1538" d="M19 681q2 102 34.5 201t96.5 186t152 152.5t208.5 102.5t258.5 35q102 -1 203.5 -30t194 -87.5t163 -139.5t111.5 -194t39 -243q-2 -133 -45.5 -247t-116 -193.5t-168 -135.5t-200 -82t-213.5 -25q-147 2 -280 55.5t-230.5 144.5t-154 221.5t-53.5 278.5zM293 702 q-1 -122 25.5 -224t71 -172t104 -119t125.5 -72t136 -23q96 0 178 38t141.5 108.5t93.5 177t35 237.5q1 139 -33 253.5t-94.5 191t-143.5 118t-181 41.5q-97 0 -180.5 -38.5t-145 -108.5t-96.5 -175.5t-36 -232.5zM574 1447l150 204q94 129 159 79q12 -10 19 -20.5t7 -21 t-2 -20t-10 -20t-15 -18.5t-18.5 -17.5t-19 -15.5t-18.5 -14l-220 -159zM820 1447l150 204q95 130 161 79q70 -59 -58 -147l-223 -159z" />
<glyph unicode="&#x151;" horiz-adv-x="980" d="M17 454q1 75 20 145.5t58 132.5t93.5 108t129.5 73t162 27q89 -1 165 -27t129.5 -71.5t91 -106t55.5 -130t17 -143.5q-1 -77 -22 -149t-61.5 -132t-96 -105t-128 -70t-154.5 -25q-97 0 -177 29.5t-131.5 77.5t-86.5 111t-49.5 127t-14.5 128zM250 452q5 -173 69.5 -276.5 t166.5 -100.5q107 4 162.5 109.5t49.5 287.5q-3 105 -29 189.5t-80 137.5t-127 51q-72 -2 -121.5 -56.5t-71.5 -142.5t-19 -199zM268 1002l149 205q94 129 159 78q19 -15 23.5 -33t-0.5 -32t-20.5 -31t-28 -27t-31.5 -23l-220 -160zM514 1002l148 205q96 130 162 78 q70 -59 -57 -146l-225 -160z" />
<glyph unicode="&#x152;" horiz-adv-x="1776" d="M19 666q0 103 30.5 202.5t93 187t148.5 154.5t206 106t258 39q30 0 99 -9t94 -9h739l5 -173q-43 68 -133 71l-356 3v-452h299q21 0 42 18t28 38v-209q-4 14 -15 27t-25.5 21.5t-29.5 8.5h-299v-578q31 -7 109.5 -10t148.5 0q16 1 46 2q34 2 49.5 3t42 3.5t40 6t33 9.5 t31.5 14.5t27 20.5t27 28.5t24 37.5l-41 -227h-787q-9 -1 -44 -5t-55.5 -6t-51 -4t-53.5 -2q-148 0 -281.5 51t-232.5 140t-157.5 217.5t-58.5 274.5zM293 698q0 -121 26 -221.5t70.5 -170t103.5 -117.5t124.5 -70.5t135.5 -22.5q95 0 147.5 54.5t52.5 140.5v759 q0 63 -28 108.5t-74.5 67.5t-105.5 22q-96 0 -178.5 -37.5t-143.5 -106.5t-95.5 -174t-34.5 -232z" />
<glyph unicode="&#x153;" horiz-adv-x="1609" d="M17 458q0 74 19.5 144.5t58.5 131.5t93.5 107t129 72.5t160.5 26.5q67 0 126.5 -18t92.5 -39.5t70.5 -47.5t54.5 -34q18 8 56 34t71.5 47.5t91.5 39.5t121 18t120 -14.5t108.5 -47.5t89 -82t59.5 -122.5t22 -164.5h-621v-51q0 -69 19.5 -130.5t56.5 -110t95.5 -77 t130.5 -28.5q94 0 183 61.5t126 135.5q-3 -61 -31.5 -119.5t-77.5 -105t-123 -75t-161 -28.5q-66 0 -124 19t-91 42t-71 52.5t-56 38.5q-18 -9 -56 -38t-71.5 -52t-90.5 -42.5t-120 -19.5q-98 0 -178 30t-131.5 78.5t-86.5 112.5t-50 128t-15 128zM252 462q0 -176 60 -281.5 t162 -105.5q110 0 169 101t59 286q0 62 -8 118t-25.5 105.5t-43.5 86t-63.5 57.5t-83.5 21q-72 0 -124 -52.5t-77 -139t-25 -196.5zM942 602h387q0 119 -52.5 183.5t-128.5 64.5q-89 0 -142.5 -69.5t-63.5 -178.5z" />
<glyph unicode="&#x154;" horiz-adv-x="1161" d="M49 0q51 28 51 88v1160q0 65 -51 89h425q85 0 156 -11.5t121.5 -30.5t90 -46t64 -56.5t40 -62.5t21.5 -63t6 -60q0 -51 -14.5 -97t-40 -80.5t-58.5 -62.5t-70.5 -46.5t-75 -29t-73.5 -12.5q38 -4 72 -17.5t54.5 -27t43.5 -38t30 -34t22 -31.5q238 -372 305 -452 q18 -20 49.5 -40t53.5 -29l23 -10l-256 -4q-52 -1 -98.5 26t-76.5 66q-31 43 -66.5 97t-62 95.5t-62.5 98.5t-55 87q-4 6 -16.5 25.5t-17.5 27t-16.5 24t-18 24t-18 20t-21 18t-21.5 12.5t-24.5 9.5t-26.5 2.5l-87 -4v-537q0 -60 55 -88h-356zM350 726q55 -4 89 -4 q52 0 99 15t87.5 46t64 85.5t23.5 126.5q0 29 -7 60t-25 65.5t-45 61t-72 43.5t-100 17l-114 -4v-512zM433 1433q-6 8 28 61t70 102l37 49q21 25 35.5 40t38 30t44.5 15q35 0 60 -25.5t25 -59.5q0 -18 -7 -34t-22 -29.5t-26 -21t-30 -18.5l-141 -70q-102 -47 -112 -39z" />
<glyph unicode="&#x155;" horiz-adv-x="642" d="M28 889l304 51v-171q39 68 101.5 119.5t114.5 51.5q10 0 18 -0.5t14.5 -1.5t10.5 -1.5t10 -2t8 -2.5t8.5 -4t9.5 -4v-250q-25 44 -59.5 69.5t-74.5 25.5q-88 0 -161 -88v-598q0 -34 12.5 -51t38.5 -32h-334q17 10 27 18.5t17 24.5t7 40v727q0 43 -19 58t-53 21zM175 996 q-3 3 3 16t18 31t27.5 39.5t31 42.5t28.5 38t22 27l8 11q24 35 54 59t61 24q36 0 62 -23.5t26 -59.5q0 -18 -7.5 -33.5t-23.5 -29t-26.5 -20.5t-30.5 -19l-134 -65q-109 -49 -119 -38z" />
<glyph unicode="&#x158;" horiz-adv-x="1161" d="M43 0q51 28 51 88v1160q0 65 -51 89h425q84 0 155 -11.5t121.5 -30.5t90.5 -46t64.5 -56.5t40 -62.5t22 -63t6.5 -60q0 -61 -21.5 -114.5t-55.5 -90.5t-78.5 -64.5t-89 -41.5t-87.5 -17q27 -3 52.5 -11t43.5 -16.5t37.5 -23.5t29.5 -24t25 -27.5t18.5 -24t14.5 -21.5 q238 -372 305 -452q8 -9 19 -18.5t22.5 -17t24 -14.5t23 -12t19 -9t13.5 -6l4 -2l-255 -4q-52 -1 -98.5 26t-76.5 66q-39 56 -81 119.5t-95 148t-69 110.5q-5 6 -17 25.5t-17 27t-16.5 24t-18.5 24t-18.5 20t-21 18t-21.5 12.5t-24.5 9.5t-26.5 2.5l-87 -4v-537 q0 -59 55 -88h-356zM191 1705q4 4 34.5 -6.5t70.5 -29t79.5 -37.5t66.5 -33l27 -14l159 77q113 52 123 43q6 -8 -61 -81.5t-139.5 -144t-81.5 -70.5q-7 0 -79 70.5t-138.5 144t-60.5 81.5zM344 726q55 -4 89 -4q52 0 99.5 15t87.5 46t64 85.5t24 126.5q0 29 -7 60 t-25.5 65.5t-45.5 61t-71.5 43.5t-100.5 17l-114 -4v-512z" />
<glyph unicode="&#x159;" horiz-adv-x="642" d="M28 889l304 51v-171q39 68 101.5 119.5t114.5 51.5q10 0 18 -0.5t14.5 -1.5t10.5 -1.5t10 -2t8 -2.5t8.5 -4t9.5 -4v-250q-25 44 -59.5 69.5t-74.5 25.5q-88 0 -161 -88v-598q0 -34 12.5 -51t38.5 -32h-334q17 10 27 18.5t17 24.5t7 40v727q0 43 -19 58t-53 21zM36 1282 q6 5 37.5 -5t72 -28t80.5 -37t67 -33l28 -14l149 73q122 55 132 44q5 -7 -61.5 -78.5t-139 -140t-80.5 -68.5q-14 0 -153 138.5t-132 148.5z" />
<glyph unicode="&#x15a;" horiz-adv-x="929" d="M19 407q12 -44 32 -87.5t52.5 -87t71.5 -76t92 -53t112 -20.5q56 0 101 15.5t73 39.5t46.5 56t26 63t7.5 62q0 45 -14.5 81.5t-36 60.5t-58.5 47.5t-70 38t-84 38.5t-87 44q-135 73 -197 158.5t-62 197.5q0 77 27.5 141t71.5 106.5t101.5 71.5t114.5 41.5t113 12.5 q65 0 147.5 -16.5t149.5 -56.5l10 -290q-11 42 -37 85.5t-65.5 84t-99 66.5t-126.5 26q-54 0 -95.5 -17.5t-65.5 -46t-36 -60.5t-12 -65q0 -26 5.5 -48t14.5 -39t28.5 -35t36.5 -31t50.5 -31t60 -31t74.5 -35q12 -6 38 -18q48 -22 73 -33.5t67 -35.5t64 -43.5t51.5 -51 t44 -65t25 -79t10.5 -98.5q0 -90 -37.5 -168t-100.5 -131.5t-146.5 -83.5t-173.5 -30q-63 0 -122.5 9t-109.5 26t-79.5 29t-65.5 30zM348 1388q-6 8 29.5 60.5t73.5 101.5l39 48q59 85 116 85q34 0 59 -26t25 -59q0 -48 -65 -91q-4 -3 -13 -9l-6 -4l-146 -69 q-103 -45 -112 -37z" />
<glyph unicode="&#x15b;" horiz-adv-x="715" d="M15 65v283q12 -52 34.5 -99.5t54 -86t74.5 -61t90 -22.5q46 0 80.5 14t53 36.5t27 44.5t8.5 42q0 14 -2 26t-8 23t-11 19.5t-18 19t-21.5 17.5t-29 19t-32.5 19t-40 22.5t-45 25.5q-117 67 -160.5 128.5t-43.5 148.5q0 30 7.5 58.5t23 58t42 54t62 44t85 30.5t108.5 11 q114 0 228 -51l4 -266q-14 42 -32.5 79t-45 72.5t-63 56.5t-77.5 21q-70 0 -105.5 -32t-35.5 -75q0 -21 8 -40t19 -32t35.5 -30t41 -27t52.5 -29q2 -1 3 -2t2.5 -1.5t3.5 -1.5q2 -2 8 -5q36 -20 54 -31t50.5 -32t50 -37t40.5 -40.5t34.5 -48.5t20.5 -55t9 -65 q0 -57 -24 -106t-62 -81.5t-86 -55.5t-96 -33.5t-92 -10.5q-125 0 -284 84zM222 998q-3 3 3 16t18 31t27.5 39.5t31 42.5t28.5 38t22 27l8 11q24 35 54.5 58.5t61.5 23.5q36 0 61.5 -23t25.5 -59q0 -18 -7.5 -33.5t-23 -29t-26 -20.5t-30.5 -19l-134 -64q-110 -50 -120 -39z " />
<glyph unicode="&#x15e;" horiz-adv-x="910" d="M19 407q12 -44 32 -87.5t52.5 -87t71.5 -76t92 -53t112 -20.5q56 0 101 15.5t73 39.5t46.5 56t26 63t7.5 62q0 45 -14.5 81.5t-36 60.5t-58.5 47.5t-70 38t-84 38.5t-87 44q-135 73 -197 158.5t-62 197.5q0 77 27.5 141t71.5 106.5t101.5 71.5t114.5 41.5t113 12.5 q65 0 147.5 -16.5t149.5 -56.5l10 -290q-11 42 -37 85.5t-65.5 84t-99 66.5t-126.5 26q-54 0 -95.5 -17.5t-65.5 -46t-36 -60.5t-12 -65q0 -26 5.5 -48t14.5 -39t28.5 -35t36.5 -31t50.5 -31t60 -31t74.5 -35q12 -6 38 -18q48 -22 73 -33.5t67 -35.5t64 -43.5t51.5 -51 t44 -65t25 -79t10.5 -98.5q0 -90 -37.5 -168t-100.5 -131.5t-146.5 -83.5t-173.5 -30q-63 0 -122.5 9t-109.5 26t-79.5 29t-65.5 30zM283 -179q0 96 73.5 148.5t202.5 52.5l5 -16q-6 -2 -17 -6.5t-39 -20t-49.5 -34t-39.5 -49.5t-18 -65q0 -19 10 -34.5t28.5 -25t42.5 -9.5 q16 0 29 2.5t42 17t68 41.5q0 -69 -41.5 -115t-113.5 -46q-81 0 -132 45.5t-51 113.5z" />
<glyph unicode="&#x15f;" horiz-adv-x="715" d="M15 65v283q12 -52 34.5 -99.5t54 -86t74.5 -61t90 -22.5q46 0 80.5 14t53 36.5t27 44.5t8.5 42q0 14 -2 26t-8 23t-11 19.5t-18 19t-21.5 17.5t-29 19t-32.5 19t-40 22.5t-45 25.5q-117 67 -160.5 128.5t-43.5 148.5q0 30 7.5 58.5t23 58t42 54t62 44t85 30.5t108.5 11 q114 0 228 -51l4 -266q-14 42 -32.5 79t-45 72.5t-63 56.5t-77.5 21q-70 0 -105.5 -32t-35.5 -75q0 -21 8 -40t19 -32t35.5 -30t41 -27t52.5 -29q2 -1 3 -2t2.5 -1.5t3.5 -1.5q2 -2 8 -5q36 -20 54 -31t50.5 -32t50 -37t40.5 -40.5t34.5 -48.5t20.5 -55t9 -65 q0 -57 -24 -106t-62 -81.5t-86 -55.5t-96 -33.5t-92 -10.5q-125 0 -284 84zM152 -182q30 -21 53 -34.5t39 -19t25.5 -7t21.5 -1.5q36 0 58.5 20t22.5 49q0 25 -9 48t-23.5 40t-32 32t-35 25t-32 17t-23.5 10l-9 3l6 15q85 0 147 -23t95.5 -68.5t33.5 -108.5 q0 -69 -51.5 -114t-132.5 -45q-72 0 -113 46t-41 116z" />
<glyph unicode="&#x160;" horiz-adv-x="927" d="M19 407q12 -44 32 -87.5t52.5 -87t71.5 -76t92 -53t112 -20.5q56 0 101 15.5t73 39.5t46.5 56t26 63t7.5 62q0 45 -14.5 81.5t-36 60.5t-58.5 47.5t-70 38t-84 38.5t-87 44q-135 73 -197 158.5t-62 197.5q0 77 27.5 141t71.5 106.5t101.5 71.5t114.5 41.5t113 12.5 q65 0 147.5 -16.5t149.5 -56.5l10 -290q-11 42 -37 85.5t-65.5 84t-99 66.5t-126.5 26q-54 0 -95.5 -17.5t-65.5 -46t-36 -60.5t-12 -65q0 -26 5.5 -48t14.5 -39t28.5 -35t36.5 -31t50.5 -31t60 -31t74.5 -35q12 -6 38 -18q48 -22 73 -33.5t67 -35.5t64 -43.5t51.5 -51 t44 -65t25 -79t10.5 -98.5q0 -90 -37.5 -168t-100.5 -131.5t-146.5 -83.5t-173.5 -30q-63 0 -122.5 9t-109.5 26t-79.5 29t-65.5 30zM150 1705q4 4 34.5 -6.5t70.5 -29t79.5 -37.5t66.5 -33l27 -14l158 77q114 52 123 43q5 -6 -35.5 -53.5t-93 -101t-99.5 -97.5t-53 -44 q-8 0 -79.5 70.5t-138 144t-60.5 81.5z" />
<glyph unicode="&#x161;" horiz-adv-x="715" d="M15 65v283q12 -52 34.5 -99.5t54 -86t74.5 -61t90 -22.5q46 0 80.5 14t53 36.5t27 44.5t8.5 42q0 14 -2 26t-8 23t-11 19.5t-18 19t-21.5 17.5t-29 19t-32.5 19t-40 22.5t-45 25.5q-117 67 -160.5 128.5t-43.5 148.5q0 30 7.5 58.5t23 58t42 54t62 44t85 30.5t108.5 11 q114 0 228 -51l4 -266q-14 42 -32.5 79t-45 72.5t-63 56.5t-77.5 21q-70 0 -105.5 -32t-35.5 -75q0 -21 8 -40t19 -32t35.5 -30t41 -27t52.5 -29q2 -1 3 -2t2.5 -1.5t3.5 -1.5q2 -2 8 -5q36 -20 54 -31t50.5 -32t50 -37t40.5 -40.5t34.5 -48.5t20.5 -55t9 -65 q0 -57 -24 -106t-62 -81.5t-86 -55.5t-96 -33.5t-92 -10.5q-125 0 -284 84zM63 1287q10 9 81 -20t137 -62l67 -33l149 72q122 55 132 43q4 -4 -37 -50t-93 -98.5t-98.5 -95.5t-52.5 -43q-14 0 -153 139t-132 148z" />
<glyph unicode="&#x162;" horiz-adv-x="998" d="M-39 1146v191h1077v-191q-40 77 -92 79q-179 13 -323 13v-1150q0 -58 51 -88h-351q50 28 50 88v1150q-29 0 -62.5 -0.5t-63.5 -1.5t-59 -2.5t-52 -3t-40.5 -3t-27.5 -1.5l-9 -1q-32 -1 -57 -24.5t-41 -54.5zM381 -154q0 32 15 56t37 34.5t47 10.5q52 0 82.5 -42.5 t30.5 -110.5q0 -59 -28 -128.5t-69 -118.5t-76 -54q-10 -3 -13 4q-3 6 9 10q2 1 4 1q10 1 26 22t32.5 53.5t28.5 79t12 91.5q-33 -6 -39 -6q-27 0 -50 14t-36 36.5t-13 47.5z" />
<glyph unicode="&#x163;" horiz-adv-x="623" d="M-8 808l331 310v-204h261v-106h-263v-525q0 -55 14 -96t33 -61.5t46.5 -33t46.5 -15t40 -2.5q25 0 45 5.5t29 12t23 18t19 15.5q-1 -20 -16.5 -44.5t-42 -47.5t-69 -38t-90.5 -15q-142 0 -227.5 81.5t-85.5 220.5v525h-94zM222 -156q0 33 14.5 56.5t36.5 34t48 10.5 q52 0 83 -42.5t31 -110.5q0 -59 -28.5 -128.5t-69.5 -118.5t-76 -54q-10 -3 -14 4q-3 6 9 10l5 2q9 0 25.5 21t33 53.5t28.5 79t12 91.5q-34 -5 -39 -5q-41 0 -70 29.5t-29 67.5z" />
<glyph unicode="&#x164;" horiz-adv-x="1043" d="M-39 1146v191h1077v-191q-40 77 -92 79q-179 13 -323 13v-1150q0 -58 51 -88h-351q50 28 50 88v1150q-29 0 -62.5 -0.5t-63.5 -1.5t-59 -2.5t-52 -3t-40.5 -3t-27.5 -1.5l-9 -1q-32 -1 -57 -24.5t-41 -54.5zM191 1705q4 4 34.5 -6.5t70.5 -29t79.5 -37.5t66.5 -33l27 -14 l159 77q113 52 123 43q6 -8 -61 -81.5t-139.5 -144t-81.5 -70.5q-7 0 -79 70.5t-138.5 144t-60.5 81.5z" />
<glyph unicode="&#x165;" horiz-adv-x="758" d="M-8 808l331 310v-204h261v-106h-263v-525q0 -55 14 -96t33 -61.5t46.5 -33t46.5 -15t40 -2.5q25 0 45 5.5t29 12t23 18t19 15.5q-1 -20 -16.5 -44.5t-42 -47.5t-69 -38t-90.5 -15q-142 0 -227.5 81.5t-85.5 220.5v525h-94zM621 1073q0 48 29.5 74.5t69.5 26.5 q35 0 61 -19.5t39 -54t13 -80.5q0 -58 -28 -128t-69 -118.5t-76 -53.5q-10 -3 -13 4q-3 6 9 10l4 1q10 1 26 22t32.5 53.5t28.5 79t12 91.5q-33 -6 -39 -6q-40 0 -69.5 30t-29.5 68z" />
<glyph unicode="&#x16e;" horiz-adv-x="1220" d="M37 1337h378q-61 -29 -61 -89v-824q0 -46 6.5 -87.5t27 -88t52.5 -79.5t87.5 -55t129.5 -22q85 0 148 26.5t99.5 75t53.5 110t17 137.5l-3 807q0 62 -54 89h228q-51 -26 -51 -89l-5 -804q-1 -98 -24 -176t-64 -131.5t-99.5 -88.5t-128 -51t-151.5 -16q-51 0 -101.5 6.5 t-103 22t-98.5 39t-87 59.5t-70 81.5t-46 107.5t-17 134v817q0 59 -63 89zM497 1519.5q0 65.5 43.5 111.5t102.5 46q62 0 105.5 -45.5t43.5 -112t-43.5 -113t-105.5 -46.5q-59 0 -102.5 47t-43.5 112.5zM552 1520q0 -39 27.5 -69.5t63.5 -30.5q19 0 37 8.5t30.5 22t19.5 32 t7 37.5q0 41 -27 70.5t-67 29.5q-37 0 -64 -29.5t-27 -70.5z" />
<glyph unicode="&#x16f;" horiz-adv-x="1009" d="M17 891l302 51v-584q0 -60 15 -106t41.5 -73t58.5 -40t69 -13q56 0 97 22t83 62v602q0 18 -4.5 32t-10.5 21.5t-16.5 13t-18.5 8t-20 4.5l295 51v-751q0 -61 17 -91t64 -40l-222 -77q-27 13 -43 27.5t-26 40t-10 63.5q-27 -27 -51.5 -46.5t-60.5 -41t-80 -32.5t-95 -11 q-43 0 -84 10t-84 37.5t-74.5 68.5t-52 109t-20.5 154v450q0 23 -5.5 38t-17 23t-21.5 11.5t-25 6.5zM375 1108.5q0 61.5 41 105t98 43.5q59 0 100 -43t41 -105q0 -31 -11 -58.5t-30 -47.5t-45 -32t-55 -12q-57 0 -98 44t-41 105.5zM435 1109q0 -33 23.5 -58t55.5 -25 q34 0 58 25t24 58t-24 57.5t-58 24.5q-16 0 -31 -6.5t-25.5 -18t-16.5 -26.5t-6 -31z" />
<glyph unicode="&#x170;" horiz-adv-x="1220" d="M37 1337h378q-61 -29 -61 -89v-824q0 -46 6.5 -87.5t27 -88t52.5 -79.5t87.5 -55t129.5 -22q85 0 148 26.5t99.5 75t53.5 110t17 137.5l-3 807q0 62 -54 89h228q-51 -26 -51 -89l-5 -804q-1 -98 -24 -176t-64 -131.5t-99.5 -88.5t-128 -51t-151.5 -16q-51 0 -101.5 6.5 t-103 22t-98.5 39t-87 59.5t-70 81.5t-46 107.5t-17 134v817q0 59 -63 89zM433 1447l149 204q94 129 159 79q19 -16 24 -33.5t-0.5 -32t-21 -31.5t-28 -27t-31.5 -23l-220 -159zM679 1447l149 204q95 130 161 79q70 -59 -57 -147l-224 -159z" />
<glyph unicode="&#x171;" horiz-adv-x="1008" d="M17 891l302 51v-584q0 -60 15 -106t41.5 -73t58.5 -40t69 -13q56 0 97 22t83 62v602q0 18 -4.5 32t-10.5 21.5t-16.5 13t-18.5 8t-20 4.5l295 51v-751q0 -61 17 -91t64 -40l-222 -77q-27 13 -43 27.5t-26 40t-10 63.5q-27 -27 -51.5 -46.5t-60.5 -41t-80 -32.5t-95 -11 q-43 0 -84 10t-84 37.5t-74.5 68.5t-52 109t-20.5 154v450q0 23 -5.5 38t-17 23t-21.5 11.5t-25 6.5zM317 1002l149 205q94 129 159 78q19 -15 23.5 -33t-0.5 -32t-20.5 -31t-28 -27t-31.5 -23l-220 -160zM563 1002l148 205q96 130 162 78q70 -59 -57 -146l-225 -160z" />
<glyph unicode="&#x178;" horiz-adv-x="947" d="M-167 1339h444q-1 0 -4 -1q-18 -7 -26 -11.5t-18 -13.5t-10 -20t6 -30.5t21 -45.5l277 -484l259 507q22 33 11 61t-52 38h281q-41 -13 -74.5 -46.5t-54.5 -73.5l-315 -598v-533q0 -50 69 -88h-394q20 11 32 20.5t24 28t12 39.5v525l-386 631q-11 18 -20.5 31t-21.5 24 t-26 20t-34 20zM189 1529q0 32 15.5 59t42.5 42t59 15q50 0 85 -33.5t35 -82.5q0 -51 -35 -85.5t-85 -34.5q-32 0 -59 15.5t-42.5 43t-15.5 61.5zM509 1529q0 49 33.5 82.5t82.5 33.5t84.5 -33.5t35.5 -82.5q0 -51 -35 -85.5t-85 -34.5q-32 0 -58.5 15.5t-42 43t-15.5 61.5z " />
<glyph unicode="&#x179;" horiz-adv-x="978" d="M-53 0l694 1242q-91 -2 -179.5 0.5t-183 -1.5t-143.5 -16q-63 -16 -97.5 -45.5t-52.5 -78.5l3 236h985l-680 -1235q3 0 42.5 -0.5t76.5 -0.5t95.5 1t108.5 3t105 7t95 12q26 4 48 15t35 21.5t25.5 28.5t17.5 27t13 28l-6 -244h-1002zM366 1388q-6 8 29 60.5t74 101.5 l38 48q60 85 116 85q35 0 60 -26t25 -59q0 -48 -65 -91q-5 -3 -14 -9l-6 -4l-145 -69q-102 -45 -112 -37z" />
<glyph unicode="&#x17a;" horiz-adv-x="809" d="M-34 0l503 818q-54 2 -355 -4q-43 -1 -69 -20.5t-41 -58.5l9 179h767l-503 -822q185 0 387 15q30 2 50 9t33.5 23.5t20 29t16.5 39.5l-9 -208h-809zM302 998q-2 3 4 16t18 31t27 39.5t31 42.5t29 38t21 27l9 11q23 35 53.5 58.5t62.5 23.5q36 0 61 -23t25 -59 q0 -18 -7 -33.5t-22.5 -29t-26.5 -20.5t-30 -19l-134 -64q-110 -50 -121 -39z" />
<glyph unicode="&#x17b;" horiz-adv-x="978" d="M-53 0l694 1242q-91 -2 -179.5 0.5t-183 -1.5t-143.5 -16q-63 -16 -97.5 -45.5t-52.5 -78.5l3 236h985l-680 -1235q3 0 42.5 -0.5t76.5 -0.5t95.5 1t108.5 3t105 7t95 12q26 4 48 15t35 21.5t25.5 28.5t17.5 27t13 28l-6 -244h-1002zM392 1540q0 48 33 80.5t82 32.5 q46 0 79 -33t33 -80q0 -49 -33 -82.5t-79 -33.5q-49 0 -82 33.5t-33 82.5z" />
<glyph unicode="&#x17c;" horiz-adv-x="809" d="M-34 0l503 818q-54 2 -355 -4q-43 -1 -69 -20.5t-41 -58.5l9 179h767l-503 -822q185 0 387 15q30 2 50 9t33.5 23.5t20 29t16.5 39.5l-9 -208h-809zM287 1140q0 32 15.5 58t41.5 41.5t57 15.5q32 0 59 -15.5t42 -41.5t15 -58q0 -48 -35 -82t-81 -34q-24 0 -45 9t-36 24.5 t-24 37t-9 45.5z" />
<glyph unicode="&#x17d;" horiz-adv-x="978" d="M-53 0l694 1242q-91 -2 -179.5 0.5t-183 -1.5t-143.5 -16q-63 -16 -97.5 -45.5t-52.5 -78.5l3 236h985l-680 -1235q3 0 42.5 -0.5t76.5 -0.5t95.5 1t108.5 3t105 7t95 12q26 4 48 15t35 21.5t25.5 28.5t17.5 27t13 28l-6 -244h-1002zM191 1705q4 4 34.5 -6.5t70.5 -29 t79.5 -37.5t66.5 -33l27 -14l159 77q113 52 123 43q6 -8 -61 -81.5t-139.5 -144t-81.5 -70.5q-7 0 -79 70.5t-138.5 144t-60.5 81.5z" />
<glyph unicode="&#x17e;" horiz-adv-x="809" d="M-34 0l503 818q-54 2 -355 -4q-43 -1 -69 -20.5t-41 -58.5l9 179h767l-503 -822q185 0 387 15q30 2 50 9t33.5 23.5t20 29t16.5 39.5l-9 -208h-809zM122 1287q6 6 37.5 -4t72.5 -28t81 -36.5t67 -32.5l27 -14l150 72q121 55 131 43q6 -6 -61 -77.5t-139.5 -140.5 t-80.5 -69t-81 69t-141 140.5t-63 77.5z" />
<glyph unicode="&#x192;" horiz-adv-x="829" d="M-195 -274l15 172q8 -50 35 -90t66 -40q62 0 104.5 44t53.5 109l141 889h-165l18 104h161l34 185q10 56 36.5 103.5t66 82.5t92.5 54t115 19q56 0 118 -14t105 -40l-30 -205q-8 62 -45 116.5t-83 54.5q-29 0 -52.5 -11.5t-38 -28.5t-26.5 -43.5t-17.5 -49.5t-11.5 -52 l-31 -171h228l-15 -104h-227l-175 -912q-13 -71 -62.5 -126t-115 -82.5t-133.5 -27.5q-107 0 -161 64z" />
<glyph unicode="&#x2c6;" horiz-adv-x="683" d="M8 1077q0 58 19 106t50.5 80t72.5 54t83.5 31.5t85.5 9.5q68 0 124 -21.5t93.5 -57.5t63.5 -85t37.5 -102.5t11.5 -110.5q0 -60 -16.5 -123.5t-49.5 -122t-77.5 -104.5t-105.5 -73.5t-128 -26.5q-64 0 -110 19t-60 46q5 -2 17.5 -6.5t17.5 -6t15.5 -3.5t22.5 -3t28 -1 q58 0 107.5 27t83 72t55 100t27.5 114q-66 -69 -202 -69q-46 0 -92.5 18t-85.5 49.5t-63.5 81.5t-24.5 108zM169 1093q0 -21 4 -45.5t15 -53t27.5 -51t43.5 -37t62 -13.5q48 1 83.5 24t53.5 63.5t18 94.5q0 99 -45.5 156.5t-107.5 57.5q-32 0 -57 -9.5t-41 -23t-27.5 -34.5 t-16.5 -38t-8 -38.5t-3.5 -31t-0.5 -21.5z" />
<glyph unicode="&#x2da;" d="M295 1142q0 60 38.5 101.5t92.5 41.5q57 0 97 -41t40 -102q0 -60 -40.5 -103t-96.5 -43q-53 0 -92 43t-39 103zM344 1142q0 -13 4 -27t12 -25t18 -19.5t22.5 -13.5t25.5 -5q36 0 62 27.5t26 62.5q0 18 -7 35t-18.5 29t-28 19.5t-34.5 7.5q-34 0 -58 -27t-24 -64z" />
<glyph unicode="&#x2dc;" d="M116 1073q2 10 15.5 27.5t36.5 37.5t50 38t61 29.5t65 11.5q32 0 116 -30.5t114 -30.5q15 0 29.5 2.5t25 6.5t20 9t16 10t11 9.5l6.5 6.5l2 3l44 -51q-4 -5 -12 -13t-31.5 -29t-47.5 -37.5t-58 -29.5t-65 -13q-46 0 -94.5 18t-85.5 35.5t-55 17.5t-37 -7t-33 -17 t-26 -20.5t-18 -17.5l-6 -7z" />
<glyph unicode="&#x2000;" horiz-adv-x="885" />
<glyph unicode="&#x2001;" horiz-adv-x="1771" />
<glyph unicode="&#x2002;" horiz-adv-x="885" />
<glyph unicode="&#x2003;" horiz-adv-x="1771" />
<glyph unicode="&#x2004;" horiz-adv-x="590" />
<glyph unicode="&#x2005;" horiz-adv-x="442" />
<glyph unicode="&#x2006;" horiz-adv-x="295" />
<glyph unicode="&#x2007;" horiz-adv-x="295" />
<glyph unicode="&#x2008;" horiz-adv-x="221" />
<glyph unicode="&#x2009;" horiz-adv-x="354" />
<glyph unicode="&#x200a;" horiz-adv-x="98" />
<glyph unicode="&#x2010;" horiz-adv-x="473" d="M22 441v159h393v-159h-393z" />
<glyph unicode="&#x2011;" horiz-adv-x="473" d="M22 441v159h393v-159h-393z" />
<glyph unicode="&#x2012;" horiz-adv-x="473" d="M22 441v159h393v-159h-393z" />
<glyph unicode="&#x2013;" horiz-adv-x="878" d="M59 535v230h761v-230h-761z" />
<glyph unicode="&#x2014;" horiz-adv-x="1360" d="M59 456v128h1243v-128h-1243z" />
<glyph unicode="&#x2018;" horiz-adv-x="317" d="M19 991q0 74 36 161t87.5 147.5t95.5 66.5q12 5 17 -4q4 -7 -12 -12l-5 -1q-12 -2 -32 -28.5t-41 -67.5t-36 -99t-15 -114q42 8 49 8q51 0 87.5 -36.5t36.5 -85.5q0 -59 -37 -92t-87 -33q-65 0 -104.5 52.5t-39.5 137.5z" />
<glyph unicode="&#x2019;" horiz-adv-x="317" d="M17 1233q0 59 37 92t87 33q66 0 105 -52.5t39 -137.5q0 -74 -35.5 -161t-87 -148t-95.5 -67q-11 -4 -16 4q-6 9 13 14h3q8 1 20 13.5t25.5 33t27.5 50t25.5 62t18.5 72t7 77.5q-42 -7 -50 -7q-51 0 -87.5 36.5t-36.5 85.5z" />
<glyph unicode="&#x201a;" horiz-adv-x="317" d="M49 102q0 59 37 92.5t87 33.5q65 0 104.5 -52.5t39.5 -138.5q0 -74 -36 -161t-87.5 -147.5t-95.5 -66.5q-12 -4 -17 4q-4 8 12 12q2 1 5 1q12 2 32 28.5t41 67.5t36 99.5t15 113.5q-42 -7 -49 -7q-51 0 -87.5 36.5t-36.5 84.5z" />
<glyph unicode="&#x201c;" horiz-adv-x="597" d="M19 991q0 74 36 161t87.5 147.5t95.5 66.5q12 5 17 -4q4 -7 -12 -12l-5 -1q-12 -2 -32 -28.5t-41 -67.5t-36 -99t-15 -114q42 8 49 8q51 0 87.5 -36.5t36.5 -85.5q0 -59 -37 -92t-87 -33q-65 0 -104.5 52.5t-39.5 137.5zM309 991q0 74 35.5 161t87 147.5t95.5 66.5 q12 5 17 -4q4 -7 -12 -12l-5 -1q-12 -2 -32 -28.5t-41 -67.5t-36 -99t-15 -114q41 8 49 8q51 0 87.5 -36.5t36.5 -85.5q0 -59 -37 -92t-87 -33q-65 0 -104 52.5t-39 137.5z" />
<glyph unicode="&#x201d;" horiz-adv-x="597" d="M17 1233q0 59 37 92t87 33q66 0 105 -52.5t39 -137.5q0 -74 -35.5 -161t-87 -148t-95.5 -67q-11 -4 -16 4q-6 9 13 14h3q8 1 20 13.5t25.5 33t27.5 50t25.5 62t18.5 72t7 77.5q-42 -7 -50 -7q-51 0 -87.5 36.5t-36.5 85.5zM306 1233q0 59 37.5 92t87.5 33q44 0 76.5 -24 t49.5 -67t17 -99q0 -74 -35.5 -161t-87 -148t-95.5 -67q-11 -4 -16 4q-6 9 13 14h3q8 1 20 13.5t25.5 33t27.5 50t25.5 62t18.5 72t7 77.5q-41 -7 -49 -7q-51 0 -88 36.5t-37 85.5z" />
<glyph unicode="&#x201e;" horiz-adv-x="597" d="M49 102q0 59 37 92.5t87 33.5q65 0 104.5 -52.5t39.5 -138.5q0 -74 -36 -161t-87.5 -147.5t-95.5 -66.5q-12 -4 -17 4q-4 8 12 12q2 1 5 1q12 2 32 28.5t41 67.5t36 99.5t15 113.5q-42 -7 -49 -7q-51 0 -87.5 36.5t-36.5 84.5zM338 102q0 59 37 92.5t87 33.5 q65 0 104.5 -52.5t39.5 -138.5q0 -74 -36 -161t-87.5 -147.5t-95.5 -66.5q-12 -4 -17 4q-4 8 12 12l5 1q12 2 32 28.5t41 67.5t36 99.5t15 113.5q-42 -7 -49 -7q-51 0 -87.5 36.5t-36.5 84.5z" />
<glyph unicode="&#x2020;" horiz-adv-x="955" d="M30 818v154h349v109q0 26 -6 81.5t-18.5 111.5t-26.5 63h260q-21 -10 -36 -107.5t-15 -148.5v-109h348v-154q-15 32 -240 32h-108v-983q0 -27 5.5 -81.5t18 -111t27.5 -64.5h-260q20 12 35.5 110t15.5 147v983h-109q-223 0 -240 -32z" />
<glyph unicode="&#x2021;" horiz-adv-x="955" d="M28 332v158h353v360h-118q-220 0 -235 -32v154h353v109q0 51 -15 148.5t-36 107.5h261q-20 -10 -35.5 -107.5t-15.5 -148.5v-109h355v-154q-16 32 -238 32h-117v-360h355v-158q-3 6 -11 10t-21 7t-27 5.5t-33 4t-34 2t-35.5 1t-31 0.5h-27.5h-18h-117v-495 q0 -51 15.5 -148t35.5 -109h-261q21 12 36 109t15 148v495h-118h-19h-27.5t-31 -0.5t-34.5 -1t-33 -2t-32.5 -4t-26.5 -5.5t-21 -7t-10 -10z" />
<glyph unicode="&#x2022;" horiz-adv-x="709" d="M13 651q0 132 94.5 224.5t228.5 92.5q87 0 161 -42t117 -115t43 -160q0 -88 -43 -162.5t-117 -117.5t-161 -43q-53 0 -102 16.5t-88.5 46t-69.5 69.5t-46.5 89t-16.5 102z" />
<glyph unicode="&#x2026;" horiz-adv-x="1426" d="M55 106.5q0 52.5 34 88t86 35.5q50 0 86 -36t36 -87q0 -34 -16.5 -62.5t-44.5 -45t-61 -16.5q-52 0 -86 35.5t-34 88zM578 106.5q0 51.5 35.5 87.5t84.5 36q34 0 62 -16t44 -44.5t16 -62.5q0 -52 -35 -88t-87 -36q-49 0 -84.5 36t-35.5 87.5zM1092 106.5 q0 51.5 35.5 87.5t85.5 36q34 0 62.5 -16t45 -44.5t16.5 -62.5q0 -52 -36 -88t-88 -36q-50 0 -85.5 36t-35.5 87.5z" />
<glyph unicode="&#x202f;" horiz-adv-x="354" />
<glyph unicode="&#x2030;" horiz-adv-x="1849" d="M17 1020q0 93 35 168.5t104 121t161 45.5q84 -1 148 -48t96 -122t32 -165q0 -81 -25 -146t-66.5 -104t-92.5 -59.5t-107 -20.5q-121 0 -203 90t-82 240zM135 0q104 162 399 672.5t374 664.5h150q-107 -165 -401.5 -674.5t-371.5 -662.5h-150zM197 1030 q-2 -141 27.5 -210.5t77.5 -70.5q50 -2 80.5 71.5t30.5 199.5q1 132 -27.5 210t-76.5 78q-50 0 -80.5 -72.5t-31.5 -205.5zM596 311q0 94 34.5 170t102.5 121.5t158 44.5q85 -1 149 -47t96.5 -120.5t31.5 -164.5q0 -82 -25 -147t-66 -104.5t-92.5 -60t-108.5 -20.5 q-121 0 -201 89.5t-79 238.5zM775 323q0 -141 28 -211.5t73 -70.5q53 0 84 71.5t31 198.5q0 53 -5 98.5t-13.5 80t-21.5 59t-29 37t-35 12.5q-50 0 -81 -72t-31 -203zM1219 311q1 56 14 106.5t39 92.5t61 73t82.5 48t102.5 16q84 -1 147.5 -47t95.5 -120.5t32 -164.5 q0 -82 -24.5 -147t-65.5 -104.5t-92 -60t-107 -20.5q-122 0 -204 89.5t-81 238.5zM1400 323q-2 -141 27.5 -211.5t76.5 -70.5q51 0 78.5 70.5t29.5 199.5q1 132 -27.5 209.5t-74.5 77.5q-47 0 -78.5 -72.5t-31.5 -202.5z" />
<glyph unicode="&#x2039;" horiz-adv-x="569" d="M43 484v155q20 0 53 9t84 34.5t104 63.5t115.5 103.5t116.5 146.5q-3 -8 -9 -36.5t-12 -55.5t-18 -65.5t-26 -71.5t-36.5 -68.5t-48.5 -62t-63 -46.5t-79 -27q42 -10 79 -32t63 -49t48.5 -62.5t36.5 -68t26 -70.5t18 -64t12 -54.5t9 -36.5q-46 67 -97.5 123.5t-98.5 94 t-91.5 66t-81.5 44t-63 23t-41 7.5z" />
<glyph unicode="&#x203a;" horiz-adv-x="569" d="M53 126q2 8 8 36.5t12 54.5t18 64t26 70.5t36 68t48 62.5t63 49t80 32q-43 7 -80 27t-63 46.5t-48 62t-36 68.5t-26 71.5t-18 65.5t-12 55.5t-8 36.5q45 -68 96 -125.5t98 -94.5t91.5 -65t81.5 -43t63 -22t42 -7v-155q-18 0 -51 -10t-84 -36t-104.5 -64t-116.5 -103.5 t-116 -144.5z" />
<glyph unicode="&#x2044;" horiz-adv-x="913" d="M-2 0q37 64 227 375.5t354.5 589.5t204.5 372h130q-47 -84 -229.5 -385.5t-349 -582t-205.5 -369.5h-132z" />
<glyph unicode="&#x205f;" horiz-adv-x="442" />
<glyph unicode="&#x20ac;" horiz-adv-x="1163" d="M0 531l32 88h153q-3 20 -3 47q0 18 5 97h-185l34 87h165q20 108 63 199t107 159t152.5 106.5t191.5 38.5q54 0 120.5 -15.5t107.5 -30.5l40 -15v-305q-39 121 -106 194.5t-155 73.5q-107 0 -177 -99.5t-89 -305.5q119 0 213 5.5t143 13t81.5 14.5t41.5 12l9 5l-81 -185 l-12 8q-76 35 -399 38h-1h-1q-2 -22 -2 -71q0 -47 2 -71q69 2 127.5 6t97 8.5t69 9t47.5 9t28 8.5t15 6l3 2l-78 -182q-2 4 -12.5 9.5t-86.5 17.5t-202 16q18 -125 64.5 -212.5t113.5 -130t150 -42.5q79 0 146.5 36t107.5 83q-1 -20 -11.5 -47t-29.5 -58.5t-50 -62 t-68 -55.5t-88.5 -40t-108.5 -15q-205 0 -335 143t-158 403h-191z" />
<glyph unicode="&#x2122;" horiz-adv-x="599" d="M63 1309v28h189v-28h-75v-393h-36v393h-78zM306 916v421h58l84 -354l92 354h56v-421h-30v397l-102 -397h-29l-97 397v-397h-32z" />
<glyph unicode="&#x25fc;" horiz-adv-x="913" d="M0 0v914h914v-914h-914z" />
</font>
</defs>
</svg>
